<?xml version="1.0" standalone="no"?>
<!DOCTYPE svg PUBLIC "-//W3C//DTD SVG 1.1//EN" "http://www.w3.org/Graphics/SVG/1.1/DTD/svg11.dtd" >
<svg xmlns="http://www.w3.org/2000/svg" xmlns:xlink="http://www.w3.org/1999/xlink" version="1.1">
<metadata>
Created by FontForge 20201107 at Wed Oct  2 06:26:58 2024
 By 
Copyright 2010 URW++ Design &#38; Development Hamburg
</metadata>
<defs>
<font id="EurostileExt-Med" horiz-adv-x="1024" >
  <font-face 
    font-family="EurostileExtMed"
    font-weight="500"
    font-stretch="normal"
    units-per-em="2048"
    panose-1="0 0 6 0 0 0 0 0 0 0"
    ascent="1370"
    descent="-678"
    x-height="961"
    cap-height="1366"
    bbox="-475 -512 3502 1849"
    underline-thickness="186"
    underline-position="-206"
    unicode-range="U+0020-FB04"
  />
<missing-glyph horiz-adv-x="512" 
 />
    <glyph glyph-name="ff" unicode="ff" horiz-adv-x="1802" 
d="M57 768v193h199v49q0 114 22 184.5t78 116t145 63t232 17.5q59 0 185 -7v-188q-55 2 -125 2q-156 0 -211.5 -39t-55.5 -149v-49h580v49q0 91 14.5 154t46.5 108.5t89 70.5t135.5 36.5t193.5 11.5q58 0 184 -7v-188q-55 2 -124 2q-157 0 -213 -39t-56 -149v-49h406v-193
h-406v-768h-270v768h-580v-768h-270v768h-199z" />
    <glyph glyph-name="fi" unicode="fi" horiz-adv-x="1513" 
d="M1358 961v-961h-271v768h-561v-768h-270v768h-199v193h199v49q0 114 22 184.5t78 116t145 63t232 17.5q59 0 185 -7v-188q-55 2 -125 2q-156 0 -211.5 -39t-55.5 -149v-49h832zM1087 1145v225h271v-225h-271z" />
    <glyph glyph-name="fl" unicode="fl" horiz-adv-x="1513" 
d="M57 961h199v49q0 110 22.5 180.5t71.5 114.5q52 47 139.5 66.5t247.5 19.5q2 0 230 -9l391 -6v-1376h-271v1188l-63 4q-91 6 -223 6q-161 0 -218 -39t-57 -149v-49h394v-193h-394v-768h-270v768h-199v193z" />
    <glyph glyph-name="ffi" unicode="ffi" horiz-adv-x="2363" 
d="M57 768v193h199v49q0 114 22 184.5t78 116t145 63t232 17.5q59 0 185 -7v-188q-55 2 -125 2q-156 0 -211.5 -39t-55.5 -149v-49h580v49q0 91 14.5 154t46.5 108.5t89 70.5t135.5 36.5t193.5 11.5q58 0 184 -7v-188q-55 2 -124 2q-157 0 -213 -39t-56 -149v-49h832v-961
h-271v768h-561v-768h-270v768h-580v-768h-270v768h-199zM1937 1141v229h271v-229h-271z" />
    <glyph glyph-name="ffl" unicode="ffl" horiz-adv-x="2363" 
d="M57 768v193h199v49q0 114 22 184.5t78 116t145 63t232 17.5q59 0 185 -7v-188q-55 2 -125 2q-156 0 -211.5 -39t-55.5 -149v-49h580v49q0 215 98 297t355 82q7 0 127 -3l522 -10v-1376h-271v1188l-233 10h-55q-155 0 -214 -40.5t-59 -147.5v-49h396v-193h-396v-768h-270
v768h-580v-768h-270v768h-199z" />
    <glyph glyph-name=".notdef" horiz-adv-x="512" 
 />
    <glyph glyph-name=".null" horiz-adv-x="0" 
 />
    <glyph glyph-name="nonmarkingreturn" horiz-adv-x="682" 
 />
    <glyph glyph-name="space" unicode=" " horiz-adv-x="512" 
 />
    <glyph glyph-name="exclam" unicode="!" horiz-adv-x="630" 
d="M178 496l-14 870h305l-16 -870h-275zM152 0v315h321v-315h-321z" />
    <glyph glyph-name="quotedbl" unicode="&#x22;" horiz-adv-x="749" 
d="M276 817h-159l-35 549h231zM633 817h-160l-37 549h232z" />
    <glyph glyph-name="numbersign" unicode="#" horiz-adv-x="1619" 
d="M700 1006h316l57 360h203l-57 -360h243l-26 -183h-244l-41 -260h246l-29 -184h-246l-61 -379h-207l64 379h-316l-59 -379h-199l62 379h-250l28 184h250l41 260h-248l27 183h248l57 360h201zM633 563h313l41 260h-313z" />
    <glyph glyph-name="dollar" unicode="$" horiz-adv-x="1910" 
d="M1028 1143v-332l250 -6q215 -4 313 -29t154 -88q74 -80 74 -272q0 -116 -25 -188.5t-80 -118.5q-72 -62 -206 -85.5t-410 -23.5h-70v-141h-160v141q-237 0 -329.5 6t-186.5 27q-137 29 -197.5 110t-60.5 234q0 41 4 80h273q-2 -16 -2 -43q0 -49 11.5 -80t38 -53.5
t80.5 -34t127.5 -16.5t190.5 -5h51v371l-227 2q-202 3 -298.5 27t-149.5 84q-78 93 -78 262t62.5 260.5t193.5 114.5q69 13 144.5 16.5t287.5 3.5h65v125h160v-125h78q109 0 190 -3.5t151.5 -12t119 -21.5t88 -34.5t63 -48.5t39 -65.5t21.5 -83t6 -104.5v-24h-275
q0 74 -20 108t-74 51q-41 13 -125 13h-98zM868 815v328q-225 0 -272.5 -1t-83.5 -7q-62 -11 -89.5 -46t-27.5 -104q0 -104 60 -139q47 -24 202 -27zM1028 225h164q137 0 189 7t98 30q63 35 63 150q0 72 -27 110t-90 53q-47 11 -204 13l-193 4v-367z" />
    <glyph glyph-name="percent" unicode="%" horiz-adv-x="2510" 
d="M578 -4l1161 1374h192l-1161 -1374h-192zM616 1389q165 0 247 -18t132 -64q41 -38 57.5 -115t16.5 -231q0 -152 -33 -226.5t-116 -109.5q-44 -19 -120.5 -26t-228.5 -7q-188 0 -271.5 18.5t-133.5 69.5q-37 40 -51.5 104.5t-14.5 190.5q0 176 24.5 248.5t96.5 113.5
q51 30 135.5 41t259.5 11zM575 1235q-68 0 -110 -2.5t-76.5 -13t-52 -25t-29.5 -44.5t-15 -65t-3 -92q0 -160 41 -198q47 -47 270 -47q67 0 107.5 3t74.5 13.5t51 26t28.5 47.5t14.5 70t3 100q0 54 -3.5 87.5t-16.5 61t-31 41.5t-55.5 23t-81.5 11.5t-116 2.5zM1960 782
q164 0 246 -18t133 -64q41 -40 57.5 -116t16.5 -230q0 -152 -33.5 -227.5t-116.5 -110.5q-42 -18 -118.5 -25t-229.5 -7q-190 0 -273.5 18t-132.5 72q-37 38 -51 102.5t-14 190.5q0 177 24.5 250t96.5 114q51 29 134.5 40t260.5 11zM1925 629q-70 0 -112.5 -2.5t-78.5 -13
t-53.5 -24.5t-30 -44t-15.5 -65t-3 -93q0 -160 41 -201q47 -47 269 -47q93 0 144.5 7.5t84 33.5t42 65.5t9.5 112.5q0 69 -2.5 107.5t-14.5 73t-28 49.5t-54 26t-80.5 13t-117.5 2z" />
    <glyph glyph-name="ampersand" unicode="&#x26;" horiz-adv-x="2072" 
d="M1935 -2l-284 143q-72 -83 -187.5 -112t-373.5 -29q-378 0 -550.5 12.5t-244.5 46.5q-101 46 -141.5 127t-40.5 240q0 206 70 282t266 80q-95 44 -132.5 104t-37.5 169q0 131 45 198.5t149 92.5q99 24 469 24q119 0 202 -2.5t157.5 -10.5t120.5 -19.5t85.5 -34
t59.5 -48.5t34.5 -68.5t18.5 -89t4 -114.5q0 -23 -2 -39h-281l2 33q3 46 -14.5 86t-46.5 53q-66 29 -307 29q-179 0 -252.5 -6t-108.5 -21q-20 -9 -32.5 -34.5t-12.5 -57.5q0 -46 27.5 -76.5t105.5 -70.5l773 -402q8 49 8 113q0 52 -6 111h278q2 -20 2 -62q0 -171 -24 -291
l295 -153zM1399 274l-787 402q-20 2 -39 2q-72 0 -127 -55q-43 -43 -43 -183q0 -70 15.5 -109t52.5 -61q77 -45 487 -45q217 0 312 10.5t129 38.5z" />
    <glyph glyph-name="quotesingle" unicode="'" horiz-adv-x="460" 
d="M309 817h-157l-37 549h231z" />
    <glyph glyph-name="parenleft" unicode="(" horiz-adv-x="823" 
d="M752 1401v-238q-23 2 -62 2q-177 0 -213 -73q-23 -45 -28 -125t-5 -396q0 -562 9 -624q10 -83 57 -115.5t152 -32.5h90v-237h-76q-190 0 -269.5 17t-136.5 71q-80 77 -100 231q-10 88 -10 600q0 344 4 422q10 205 62.5 316.5t158.5 152.5q77 29 291 29h76z" />
    <glyph glyph-name="parenright" unicode=")" horiz-adv-x="823" 
d="M72 -438v237q33 -2 65 -2q173 0 209 74q23 47 28 125.5t5 400.5q0 569 -8 621q-10 83 -57 115t-152 32l-90 -2v238h75q191 0 270 -17t136 -71q83 -77 100 -232q11 -94 11 -600q0 -325 -5 -422q-10 -205 -62.5 -315.5t-158.5 -153.5q-76 -28 -291 -28h-75z" />
    <glyph glyph-name="asterisk" unicode="*" horiz-adv-x="1374" 
d="M772 1448v-313l358 116l54 -164l-353 -114l211 -271l-137 -108l-219 276l-217 -276l-137 108l211 271l-353 114l54 164l358 -116v313h170z" />
    <glyph glyph-name="plus" unicode="+" horiz-adv-x="1818" 
d="M1006 801h546v-197h-546v-510h-197v510h-543v197h543v506h197v-506z" />
    <glyph glyph-name="comma" unicode="," horiz-adv-x="628" 
d="M150 319h329v-309q0 -127 -22.5 -187t-83.5 -95q-36 -20 -84 -28.5t-135 -8.5q-27 0 -45 2v172l32 -2q53 0 83 29t30 81q0 17 -2 27h-102v319z" />
    <glyph glyph-name="hyphen" unicode="-" horiz-adv-x="698" 
d="M0 643h698v-264h-698v264z" />
    <glyph glyph-name="period" unicode="." horiz-adv-x="659" 
d="M166 0v319h328v-319h-328z" />
    <glyph glyph-name="slash" unicode="/" horiz-adv-x="1536" 
d="M1223 1370h247l-1490 -1780h-254z" />
    <glyph glyph-name="zero" unicode="0" horiz-adv-x="1910" 
d="M967 1378q241 0 371 -10t204 -35.5t123 -75.5q68 -68 92.5 -193.5t24.5 -406.5q0 -224 -20 -341.5t-70 -182.5q-47 -60 -118.5 -90t-198 -42.5t-361.5 -12.5q-227 0 -348.5 3.5t-210 16t-128.5 31.5t-79 57q-69 68 -94 187.5t-25 388.5q0 276 27.5 403t101.5 193
q75 66 219 88t490 22zM973 1133h-178t-131.5 -10t-99.5 -17t-63 -38t-43 -55t-19 -87.5t-11 -115v-155.5q0 -79 2 -129t11 -98t20.5 -74.5t38.5 -51t56 -34.5t82 -18.5t107.5 -10t141.5 -1.5q300 0 387 12q118 16 160 73q39 54 45 198q2 50 2 179q0 71 -0.5 113.5t-6 91
t-10 73t-22 54t-31.5 41.5t-48.5 27t-63.5 19t-85.5 8.5t-106.5 5t-134 0.5z" />
    <glyph glyph-name="one" unicode="1" horiz-adv-x="1910" 
d="M467 748l-148 206l574 412h387v-1366h-303v1128z" />
    <glyph glyph-name="two" unicode="2" horiz-adv-x="1910" 
d="M180 866v68q0 141 29 218.5t102 131.5q70 52 215 71t473 19q327 0 462 -24.5t198 -94.5q43 -47 61.5 -119.5t18.5 -189.5q0 -125 -21 -199.5t-71 -125.5q-51 -51 -135 -75t-252 -34l-512 -35q-100 -8 -143.5 -16.5t-72.5 -26.5q-67 -42 -67 -170v-43h1274v-221h-1567v295
q1 113 23 186t77.5 121t142.5 70.5t224 29.5l514 39q97 7 149.5 17t86.5 33t43.5 56.5t9.5 94.5q0 116 -45 158q-29 28 -119 39.5t-268 11.5q-316 0 -392 -18q-63 -15 -93 -40.5t-42 -76t-12 -150.5h-291z" />
    <glyph glyph-name="three" unicode="3" horiz-adv-x="1910" 
d="M778 795h420q123 0 172 38.5t49 135.5q0 113 -59 143q-41 23 -119.5 31t-255.5 8q-350 0 -420 -23q-46 -14 -73 -51q-23 -31 -32.5 -65t-0.5 -56l2 -2v-32h-295q1 99 7.5 150t21.5 91q34 92 118.5 139t243.5 60q144 12 436 12q121 0 209 -3t165 -11.5t128.5 -21.5
t93.5 -35.5t65.5 -50t40 -69.5t22 -89.5t5.5 -112.5q0 -146 -59.5 -207t-220.5 -80q97 -14 139.5 -26t79.5 -37q86 -53 86 -246q0 -113 -22.5 -184t-73.5 -115q-66 -63 -228 -82q-95 -12 -389 -12q-490 0 -628 22q-252 47 -252 361q0 43 2 82h290q0 -40 0.5 -64t6.5 -50.5
t11 -41t22 -30.5t32.5 -23.5t49.5 -15.5t64.5 -10.5t86.5 -5t107.5 -3t134.5 -0.5q299 0 374 16q61 13 86 51.5t25 120.5q0 128 -62 158q-54 25 -172 25h-434v211z" />
    <glyph glyph-name="four" unicode="4" horiz-adv-x="1910" 
d="M150 274v375l1028 717h381v-864h221v-221h-221v-281h-291v274h-1118zM369 502h899v631z" />
    <glyph glyph-name="five" unicode="5" horiz-adv-x="1910" 
d="M170 414h291q0 -37 2.5 -61t13.5 -47t25 -36.5t45 -25t66 -17t94.5 -10t124 -5.5t161.5 -1q88 0 143.5 1t109.5 6t83.5 11.5t57 21.5t39 31t21 45t11.5 59.5t2 78.5q0 53 -5.5 88.5t-21.5 64t-40 44.5t-67 27t-97 14.5t-135 3.5h-45h-84l-154 2q-122 0 -188 -10
t-98.5 -34t-41.5 -69h-272l12 770h1481v-221h-1221l-2 -373q22 49 50.5 77t82.5 45.5t128 23.5t198 6q336 0 466 -13.5t208 -56.5q80 -44 112.5 -124.5t32.5 -235.5q0 -160 -26.5 -252.5t-87.5 -147.5q-68 -61 -172 -80q-127 -24 -521 -24q-194 0 -350.5 11t-214.5 30
q-114 34 -165.5 116t-51.5 228v39z" />
    <glyph glyph-name="six" unicode="6" horiz-adv-x="1910" 
d="M1716 981h-295q2 101 -70.5 135.5t-289.5 34.5q-283 0 -385.5 -15t-145.5 -63q-32 -37 -44.5 -90.5t-12.5 -155.5q0 -95 2 -161q17 40 33 65t44 46t60.5 31.5t89 18t122 9.5t167.5 2q253 0 379.5 -9t185.5 -32q100 -37 139.5 -116t39.5 -243q0 -137 -24.5 -219
t-78.5 -125q-76 -64 -217.5 -84t-515.5 -20q-272 0 -403.5 23.5t-200.5 84.5q-54 48 -77.5 110.5t-32.5 182.5t-9 373q0 173 15.5 274.5t51 160.5t101.5 95q85 46 222 64t409 18q123 0 212.5 -3t168 -11.5t130.5 -21.5t94.5 -35.5t66.5 -50.5t40.5 -70t22.5 -89.5t6 -113.5z
M713 219l248 -4q105 0 176 3t127.5 12.5t88.5 24t53.5 40t28.5 57t7 78.5q0 82 -26.5 120.5t-92.5 53.5q-59 12 -352 12q-317 0 -387 -22q-59 -20 -84 -61t-25 -119q0 -121 66 -156q67 -36 172 -39z" />
    <glyph glyph-name="seven" unicode="7" horiz-adv-x="1910" 
d="M150 1366h1591v-264l-950 -1102h-379l964 1114h-1226v252z" />
    <glyph glyph-name="eight" unicode="8" horiz-adv-x="1910" 
d="M1432 694q188 -20 249.5 -86t61.5 -246q0 -127 -31 -198.5t-104 -112.5q-63 -37 -174.5 -48t-405.5 -11q-417 0 -534.5 9.5t-186.5 49.5q-76 43 -107.5 114.5t-31.5 199.5q0 172 59.5 237.5t239.5 91.5q-104 12 -152 32.5t-79 64.5q-54 71 -54 219q0 123 30 195t95 106
q75 38 202.5 50.5t444.5 12.5q365 0 506.5 -22t198.5 -88q38 -44 54 -101t16 -149q0 -89 -11 -141t-45.5 -89.5t-89.5 -56.5t-151 -33zM905 1157q-100 0 -162.5 -2t-115 -9.5t-79 -18.5t-45 -32t-23.5 -47t-5 -67q0 -112 57 -141q40 -22 129.5 -28.5t350.5 -6.5
q172 0 250 7.5t114 29.5q58 34 58 131q0 70 -22 108.5t-69 53.5q-64 22 -438 22zM981 594q-345 0 -408 -14q-62 -15 -86 -53t-24 -121q0 -35 2.5 -58t13 -44.5t24.5 -34t44.5 -23.5t65.5 -16t94 -9t123 -5t161 -1q107 0 173 2t121.5 10t83.5 19.5t47 34.5t24.5 50.5
t5.5 71.5q0 83 -25 122.5t-88 54.5q-63 14 -352 14z" />
    <glyph glyph-name="nine" unicode="9" horiz-adv-x="1910" 
d="M170 385h299q0 -96 61 -129q41 -23 118 -30t302 -7q201 0 281 9t129 38q34 21 43 41q33 74 33 262v121q-27 -54 -58.5 -83t-99.5 -47.5t-162.5 -24t-265.5 -5.5q-245 0 -350 13t-174 51q-75 41 -110.5 124.5t-35.5 219.5q0 127 24 208t77 128q31 28 80.5 49.5t103.5 30.5
q125 22 479 22q287 0 418 -14.5t203 -54.5q53 -29 92.5 -83.5t52.5 -115.5q27 -126 27 -461q0 -187 -13 -293t-44.5 -168.5t-92.5 -105.5q-71 -51 -211 -70.5t-438 -19.5q-259 0 -390 12t-202 41q-94 40 -135 110t-41 191v6v35zM905 1153q-169 0 -242 -8t-114 -33
q-68 -40 -68 -174q0 -89 26 -126.5t95 -49.5q82 -12 373 -12q275 0 348 20q60 17 85.5 58.5t25.5 121.5q0 94 -41 140t-133 53q-102 10 -355 10z" />
    <glyph glyph-name="colon" unicode=":" horiz-adv-x="659" 
d="M166 0v319h328v-319h-328zM166 641v320h328v-320h-328z" />
    <glyph glyph-name="semicolon" unicode=";" horiz-adv-x="628" 
d="M150 319h329v-309q0 -127 -22.5 -187t-83.5 -95q-36 -20 -84 -28.5t-135 -8.5q-27 0 -45 2v172l32 -2q53 0 83 29t30 81q0 17 -2 27h-102v319zM152 641v320h327v-320h-327z" />
    <glyph glyph-name="less" unicode="&#x3c;" 
d="M954 1214v-204l-667 -318l667 -317v-203l-886 434v174z" />
    <glyph glyph-name="equal" unicode="=" horiz-adv-x="1818" 
d="M274 965h1268v-195h-1268v195zM274 631h1268v-195h-1268v195z" />
    <glyph glyph-name="greater" unicode="&#x3e;" horiz-adv-x="1581" 
d="M348 172v205l668 315l-668 318v204l887 -434v-176z" />
    <glyph glyph-name="question" unicode="?" horiz-adv-x="1583" 
d="M821 459h-270v18q0 61 6 102.5t23 76.5t43 57t71.5 40t103 29t142.5 21q126 15 176.5 55.5t50.5 126.5q0 105 -65 143q-68 39 -328 39q-74 0 -123 -1t-95 -5.5t-72.5 -10.5t-50 -19t-34.5 -27.5t-19.5 -39.5t-10.5 -51.5t-2 -66.5v-41h-273v35q0 150 19.5 219.5
t76.5 120.5q58 54 183 74t395 20q279 0 405 -26t191 -95q38 -41 55 -105.5t17 -170.5q0 -120 -26 -192t-83 -113q-88 -59 -342 -90q-102 -13 -133 -36.5t-31 -86.5zM524 0v297h322v-297h-322z" />
    <glyph glyph-name="at" unicode="@" horiz-adv-x="2125" 
d="M1806 195l189 -27q-19 -98 -81 -157t-159 -74q-117 -19 -921 -19q-241 0 -365 12.5t-188.5 43.5t-102.5 96q-40 68 -52.5 181t-12.5 404q0 320 16.5 442.5t67.5 176.5q86 89 317 106q129 11 647 11q388 0 532.5 -19.5t213.5 -81.5q66 -57 87 -170.5t21 -408.5
q0 -105 -4 -169t-18.5 -118t-35.5 -80.5t-63.5 -45t-94 -23.5t-134.5 -5q-226 0 -270 47q-40 42 -45 115q-31 -89 -117 -124.5t-268 -35.5q-128 0 -206 13.5t-127 49.5t-67 93.5t-18 151.5q0 125 23 218t63 136q58 58 149.5 81t266.5 23q165 0 236.5 -27t103.5 -102l8 121
h188l-41 -498l-2 -8q-3 -32 31 -71q27 -27 96 -27q37 0 58.5 3.5t40 19.5t26.5 37.5t14 70.5t7.5 104.5t1.5 151.5q0 191 -17.5 267.5t-68.5 101.5q-58 29 -185 39t-424 10q-511 0 -620 -12q-93 -10 -123 -43q-10 -10 -21 -31q-17 -32 -24 -77t-12 -142q-11 -202 -11 -305
q0 -315 27 -398q17 -54 66.5 -86t138.5 -45q101 -16 637 -16q138 0 225 1.5t160 6.5t112 12.5t68 21.5t41 31.5t20 45.5zM1083 901q-130 0 -187.5 -13t-88.5 -50q-62 -71 -62 -242q0 -103 37 -137q51 -41 205 -41q157 0 222 14t102 55q61 67 61 232q0 48 -7.5 77.5t-24 51.5
t-51.5 33t-82.5 15.5t-123.5 4.5z" />
    <glyph glyph-name="A" unicode="A" horiz-adv-x="1964" 
d="M1473 270h-975l-152 -270h-354l782 1366h428l770 -1366h-344zM1356 492l-371 653l-367 -653h738z" />
    <glyph glyph-name="B" unicode="B" horiz-adv-x="2015" 
d="M182 0v1366h1178q255 0 358 -79.5t103 -276.5q0 -191 -88 -248q-63 -42 -179 -57q87 -7 132.5 -19t87.5 -37q47 -28 72.5 -96.5t25.5 -165.5q0 -207 -105 -297t-348 -90h-1237zM492 805h745q162 0 209 24q59 35 59 132q0 106 -65 141q-45 26 -172 26h-776v-323zM492 238
h813q143 0 195 37.5t52 140.5q0 111 -63 149q-50 27 -205 27h-792v-354z" />
    <glyph glyph-name="C" unicode="C" horiz-adv-x="1990" 
d="M1540 492h305v-23q0 -146 -17.5 -226t-60.5 -126q-48 -54 -119 -80.5t-195 -37.5t-353 -11q-411 0 -543.5 13t-222.5 62q-115 63 -156 222q-28 109 -28 422q0 195 16 306.5t54.5 176.5t111.5 106q87 49 226 65.5t464 16.5q354 0 502.5 -25.5t214.5 -97.5q87 -93 90 -348
h-301q0 41 -2 67t-12 51t-22 38.5t-41 26.5t-60 18.5t-87.5 9.5t-115 5t-150.5 1q-242 0 -336 -8.5t-143 -34.5q-40 -21 -59.5 -61.5t-27 -118.5t-7.5 -231q0 -82 1.5 -133t10.5 -101t20 -76.5t38 -52t56 -35.5t82.5 -18.5t108 -10t142.5 -1.5l417 8q110 10 154.5 57.5
t44.5 153.5v31z" />
    <glyph glyph-name="D" unicode="D" horiz-adv-x="2105" 
d="M182 0v1366h1135q383 0 520 -149q63 -71 90 -197t27 -352q0 -228 -33 -353.5t-111 -197.5q-126 -117 -460 -117h-1168zM498 250h782q162 0 242 45q60 32 86 115.5t26 242.5q0 99 -5.5 165.5t-21 120t-39.5 84.5t-65.5 51t-93.5 27t-129 7h-782v-858z" />
    <glyph glyph-name="E" unicode="E" horiz-adv-x="1771" 
d="M182 0v1366h1452v-240h-1140v-323h1085v-215h-1085v-348h1153v-240h-1465z" />
    <glyph glyph-name="F" unicode="F" horiz-adv-x="1667" 
d="M182 0v1366h1393v-240h-1079v-352h1024v-237h-1024v-537h-314z" />
    <glyph glyph-name="G" unicode="G" horiz-adv-x="2050" 
d="M987 731h916v-145q0 -185 -13.5 -273.5t-50.5 -156.5q-59 -106 -215 -146q-55 -13 -173.5 -17.5t-428.5 -4.5q-274 0 -417 10t-206 35q-98 37 -151.5 101t-75.5 173q-22 107 -22 363q0 270 22 384.5t88 186.5q86 93 246 113q169 24 674 24q299 0 431 -26.5t197 -100.5
q88 -98 88 -323h-309q-2 65 -12 95.5t-39 53.5q-39 32 -113.5 41.5t-275.5 9.5q-261 0 -375 -5t-167 -19t-81 -47q-32 -37 -44.5 -114.5t-12.5 -237.5q0 -199 15.5 -285t58.5 -123q45 -40 138.5 -52t369.5 -12q196 0 281.5 4.5t127.5 16.5t72 41q65 62 65 203v26h-608v207z
" />
    <glyph glyph-name="H" unicode="H" horiz-adv-x="2074" 
d="M182 0v1366h316v-543h1077v543h315v-1366h-315v569h-1077v-569h-316z" />
    <glyph glyph-name="I" unicode="I" horiz-adv-x="681" 
d="M182 0v1366h316v-1366h-316z" />
    <glyph glyph-name="J" unicode="J" horiz-adv-x="1597" 
d="M1106 1366h315v-778q0 -215 -27 -322.5t-98 -173.5q-81 -78 -268 -96q-90 -8 -313 -8q-219 0 -325 14.5t-177 54.5q-159 93 -150 346v23v123h302v-66q0 -86 12.5 -128.5t44.5 -67.5q26 -22 109.5 -34.5t199.5 -12.5q153 0 228 15t106 50q25 29 33 79.5t8 174.5v807z" />
    <glyph glyph-name="K" unicode="K" horiz-adv-x="1943" 
d="M182 0v1366h316v-545h229l696 545h453l-868 -672l936 -694h-474l-749 569h-223v-569h-316z" />
    <glyph glyph-name="L" unicode="L" horiz-adv-x="1536" 
d="M182 0v1366h316v-1110h997v-256h-1313z" />
    <glyph glyph-name="M" unicode="M" horiz-adv-x="2619" 
d="M182 0v1366h488l643 -1028l641 1028h481v-1366h-309l12 1124l-706 -1124h-248l-703 1124l8 -1124h-307z" />
    <glyph glyph-name="N" unicode="N" horiz-adv-x="2174" 
d="M182 0v1366h490l1026 -1137l-6 1137h301v-1366h-492l-1020 1130l6 -1130h-305z" />
    <glyph glyph-name="O" unicode="O" horiz-adv-x="2121" 
d="M1149 1380q250 0 381.5 -11t206 -39t127.5 -85q83 -91 100 -289q8 -84 8 -288q0 -256 -29.5 -376.5t-107.5 -189.5q-57 -50 -139 -75.5t-211 -32.5q-132 -8 -504 -8q-315 0 -437.5 14t-209.5 61q-141 77 -168 279q-16 120 -16 387q0 239 27.5 353.5t101.5 179.5
q55 49 134.5 74t211.5 36q117 10 524 10zM1063 1122h-159.5t-125 -5t-101.5 -7.5t-73.5 -18.5t-56.5 -25.5t-34.5 -42t-25 -54.5t-10 -75.5t-6.5 -93v-118.5q0 -200 19.5 -281t76.5 -110q57 -31 148.5 -39t384.5 -8q263 0 358.5 14.5t136.5 60.5q35 38 48.5 118t13.5 253
q0 205 -14 269q-18 87 -83 120q-69 36 -266 41q-68 2 -231 2z" />
    <glyph glyph-name="P" unicode="P" horiz-adv-x="1900" 
d="M182 0v1366h1067q229 0 314 -27q127 -38 178 -136t51 -304q0 -157 -27 -249t-90 -146q-54 -47 -141.5 -66.5t-247.5 -19.5h-790v-418h-314zM496 672h702q165 0 221 42.5t56 168.5q0 138 -52.5 183.5t-210.5 45.5h-716v-440z" />
    <glyph glyph-name="Q" unicode="Q" horiz-adv-x="2127" 
d="M2105 229l-116 -221l-146 103q-63 -57 -140 -82t-216 -34t-436 -9q-283 0 -428 10t-213 33q-100 35 -155 96.5t-81 167.5q-24 112 -24 377q0 175 5.5 258t20.5 145q28 113 92 177t178 93q143 37 549 37q382 0 547.5 -18t257.5 -70q113 -64 150 -227q22 -94 22 -385
q0 -152 -4.5 -222t-17.5 -134zM1063 582l131 217l455 -295q8 63 8 209q0 171 -20.5 253t-67.5 107q-47 23 -106 31t-224 14q-106 4 -160 4q-310 0 -400 -13q-120 -16 -163 -74q-39 -54 -45 -197q-2 -50 -2 -172q0 -91 0.5 -137.5t13 -101.5t22.5 -76.5t51 -49t74.5 -33.5
t117 -15t154.5 -9h210q236 0 315.5 7.5t128.5 35.5z" />
    <glyph glyph-name="R" unicode="R" horiz-adv-x="2013" 
d="M182 0v1366h1157q179 0 272.5 -24.5t149.5 -84.5q88 -98 88 -327q0 -197 -75 -281q-32 -38 -92 -58.5t-185 -35.5q94 -6 132.5 -12.5t70.5 -20.5q66 -32 96.5 -92.5t30.5 -159.5v-270h-318v205q0 47 -4 79.5t-15.5 58.5t-29 41t-47 25t-67 13.5t-91.5 3.5h-759v-426h-314
zM496 678h749q172 0 229.5 41t57.5 164q0 74 -10.5 115.5t-43 68t-84.5 35t-143 8.5h-755v-432z" />
    <glyph glyph-name="S" unicode="S" horiz-adv-x="1931" 
d="M150 432h309v-14q0 -126 55 -158q69 -41 356 -41q221 0 422 25q60 8 92.5 19.5t51.5 33.5q41 50 41 117q0 60 -29.5 91t-101.5 48q-40 9 -94 10.5t-339 3.5h-194q-210 0 -315 21t-164 74q-95 86 -95 264q0 114 27 202.5t74 131.5q70 64 242 91t511 27q268 0 394.5 -15.5
t212.5 -59.5q72 -37 103 -113.5t34 -228.5h-307q-3 113 -64 141q-91 43 -340 43q-408 0 -500 -47q-73 -34 -73 -133q0 -87 57 -121q35 -20 106.5 -27.5t231.5 -7.5h233q308 0 432.5 -23t188.5 -92q84 -87 84 -284q0 -213 -98 -308q-68 -65 -225 -89.5t-502 -24.5
q-369 0 -517.5 21t-213.5 83q-89 83 -89 270q0 30 3 70z" />
    <glyph glyph-name="T" unicode="T" horiz-adv-x="1654" 
d="M670 0v1110h-643v256h1599v-256h-641v-1110h-315z" />
    <glyph glyph-name="U" unicode="U" horiz-adv-x="2041" 
d="M1554 1366h316v-860q0 -195 -37 -290t-135 -150q-87 -51 -220 -65.5t-497 -14.5q-355 0 -498.5 28t-218.5 113q-53 60 -71.5 148.5t-18.5 277.5v813h315v-715q0 -132 1.5 -163t9.5 -76q7 -46 23.5 -74t47.5 -49t91 -30.5t140.5 -14t209.5 -4.5q323 0 401 20
q117 29 135 156q4 25 6 215v735z" />
    <glyph glyph-name="V" unicode="V" horiz-adv-x="1902" 
d="M0 1366h348l598 -1116l606 1116h351l-756 -1366h-408z" />
    <glyph glyph-name="W" unicode="W" horiz-adv-x="2897" 
d="M29 1366h325l465 -1110l443 1110h376l437 -1110l473 1110h323l-598 -1366h-415l-410 1073l-418 -1073h-414z" />
    <glyph glyph-name="X" unicode="X" horiz-adv-x="1986" 
d="M23 0l710 698l-663 668h419l504 -518l506 518h414l-662 -664l715 -702h-430l-543 553l-544 -553h-426z" />
    <glyph glyph-name="Y" unicode="Y" horiz-adv-x="1880" 
d="M944 764l533 602h401l-778 -852v-514h-316v514l-784 852h408z" />
    <glyph glyph-name="Z" unicode="Z" horiz-adv-x="1814" 
d="M92 0v242l1159 884h-1120v240h1569v-242l-1168 -884h1186v-240h-1626z" />
    <glyph glyph-name="bracketleft" unicode="[" horiz-adv-x="774" 
d="M735 1386v-212h-295v-1389h295v-215h-563v1816h563z" />
    <glyph glyph-name="backslash" unicode="\" horiz-adv-x="1536" 
d="M315 1370l1495 -1780h-251l-1493 1780h249z" />
    <glyph glyph-name="bracketright" unicode="]" horiz-adv-x="774" 
d="M39 -430v213h295v1388h-295v215h563v-1816h-563z" />
    <glyph glyph-name="asciicircum" unicode="^" 
d="M248 717h-217l346 655h270l346 -655h-219l-262 491z" />
    <glyph glyph-name="underscore" unicode="_" 
d="M0 -115h1024v-186h-1024v186z" />
    <glyph glyph-name="grave" unicode="`" 
d="M666 1098l-465 145l67 184l437 -215z" />
    <glyph glyph-name="a" unicode="a" horiz-adv-x="1517" 
d="M430 682h-272q3 80 22.5 127t63.5 82q63 51 165 69.5t312 18.5q278 0 394 -22t175 -87q43 -47 57.5 -103t14.5 -173v-594h-270v154q-26 -100 -115.5 -136t-312.5 -36q-195 0 -290.5 11t-146.5 40q-58 32 -85 92t-27 156q0 51 5 89.5t18 71.5t33 55.5t53.5 41t75 29
t102 18t130.5 10t164 2.5q105 0 170.5 -5.5t111.5 -20t69.5 -37.5t39.5 -62v105q0 52 -3.5 84t-17.5 59t-34 40t-61 22t-89.5 11.5t-127.5 2.5q-146 0 -207.5 -8t-86.5 -30.5t-30 -76.5zM727 432q-221 0 -291 -33q-25 -10 -39 -38.5t-14 -65.5q0 -57 30 -87t99 -40
q50 -6 231 -6q145 0 216.5 11.5t101 41t29.5 88.5q0 77 -52 96q-73 33 -311 33z" />
    <glyph glyph-name="b" unicode="b" horiz-adv-x="1599" 
d="M156 0v1370h270v-573q47 103 144.5 142.5t303.5 39.5q128 0 217 -8t159.5 -30.5t112.5 -56.5t70 -91.5t38 -129.5t10 -176q0 -201 -33 -294.5t-121 -143.5q-123 -67 -444 -67q-154 0 -239.5 16.5t-134.5 55.5t-83 116v-170h-270zM868 772q-101 0 -165 -3.5t-117 -16
t-80.5 -30.5t-46 -53t-24 -78t-5.5 -110q0 -56 4 -95t13 -72t28 -53.5t44 -35.5t65 -22.5t87.5 -11t116.5 -3.5q207 0 277 19q80 22 111.5 80.5t31.5 185.5q0 98 -12 153t-51.5 89.5t-102 45.5t-174.5 11z" />
    <glyph glyph-name="c" unicode="c" horiz-adv-x="1515" 
d="M1126 365h281q-2 -92 -22.5 -155t-61.5 -108.5t-114 -71t-172 -37t-244 -11.5q-201 0 -319.5 16t-184.5 53q-89 49 -128.5 150t-39.5 278q0 176 39 278.5t125 149.5q129 72 487 72q149 0 249.5 -11t174 -35t114.5 -68.5t61 -106t22 -152.5h-277v8q3 35 -17.5 69.5
t-54.5 55.5q-60 35 -278 35q-147 0 -214 -14.5t-101 -54.5q-56 -65 -56 -226q0 -175 68 -237q34 -32 105.5 -44t236.5 -12q178 0 246.5 38.5t74.5 140.5z" />
    <glyph glyph-name="d" unicode="d" horiz-adv-x="1597" 
d="M1442 0h-262v182q-49 -120 -144 -160t-327 -40q-202 0 -319 26t-177 86q-51 51 -72.5 135t-21.5 230q0 204 33.5 300.5t121.5 147.5q132 72 439 72q244 0 342 -53q37 -20 62.5 -47t53.5 -74v565h271v-1370zM823 774q-181 0 -261.5 -14t-112.5 -51q-56 -65 -56 -232
q0 -177 62 -233q44 -38 137 -47q10 -1 110.5 -5t122.5 -4q129 0 197.5 15.5t99.5 50.5q25 28 39.5 85.5t14.5 127.5q0 69 -5 114t-20 81.5t-38 56.5t-65 33.5t-94 17.5t-131 4z" />
    <glyph glyph-name="e" unicode="e" horiz-adv-x="1503" 
d="M1386 428h-989q0 -158 58 -213t354 -55q170 0 235 29t74 110h266q-6 -151 -92 -223q-63 -51 -175.5 -71.5t-325.5 -20.5q-353 0 -467 51q-111 51 -157 150t-46 290q0 155 27.5 248.5t89.5 150.5q64 60 178.5 81.5t365.5 21.5q231 0 340.5 -25.5t171.5 -93.5
q51 -59 71.5 -139.5t20.5 -226.5v-64zM397 588h721q0 74 -24 121q-21 41 -54 57q-82 35 -239 35t-219.5 -7t-104.5 -30q-80 -45 -80 -164v-12z" />
    <glyph glyph-name="f" unicode="f" horiz-adv-x="950" 
d="M256 0v768h-199v193h199v49q0 114 22 184.5t78 116t145 63t232 17.5q59 0 185 -7v-188q-55 2 -125 2q-156 0 -211.5 -39t-55.5 -149v-49h404v-193h-404v-768h-270z" />
    <glyph glyph-name="g" unicode="g" horiz-adv-x="1597" 
d="M1442 961v-867q0 -222 -35.5 -320t-136.5 -155q-72 -40 -197 -57t-346 -17q-305 0 -422 64q-73 40 -113 112.5t-40 165.5v9h274v-9q3 -82 82 -116q68 -29 268 -29q72 0 120.5 2t93 9t71.5 17t50 30t34.5 43.5t20 62.5t10.5 82t2 106v86q-32 -67 -74 -104
q-95 -82 -373 -82q-129 0 -218.5 8.5t-160.5 31t-113 56.5t-70 91.5t-38 129.5t-10 176q0 106 9.5 178t37 129.5t69.5 91t114 55.5t162.5 30t223.5 8q160 0 249 -20t130 -66q36 -41 62 -127v195h264zM807 772q-180 0 -256.5 -14t-108.5 -53q-28 -31 -39.5 -79.5
t-11.5 -131.5q0 -99 14 -154t46 -84q44 -37 127 -47q9 -1 108.5 -4.5t126.5 -3.5q78 0 130 4t94 16.5t65.5 31t39 52.5t20.5 75.5t5 104.5q0 85 -8 127.5t-31 77.5q-31 49 -95.5 65.5t-225.5 16.5z" />
    <glyph glyph-name="h" unicode="h" horiz-adv-x="1556" 
d="M156 0v1370h270v-592q29 80 79.5 122.5t137 60.5t236.5 18q294 0 408 -93.5t114 -334.5v-551h-271v518q0 85 -11 126t-42 67q-67 55 -264 55q-221 0 -304 -57t-83 -211v-498h-270z" />
    <glyph glyph-name="i" unicode="i" horiz-adv-x="581" 
d="M156 0v961h270v-961h-270zM156 1145v225h270v-225h-270z" />
    <glyph glyph-name="j" unicode="j" horiz-adv-x="630" 
d="M37 -352v186q27 -4 51 -4q66 0 91.5 38t25.5 136v957h270v-928q0 -131 -6.5 -184.5t-28.5 -88.5q-69 -116 -297 -116q-55 0 -106 4zM205 1145v225h270v-225h-270z" />
    <glyph glyph-name="k" unicode="k" horiz-adv-x="1394" 
d="M156 0v1370h270v-756h84l444 347h381l-579 -447l651 -514h-383l-506 416h-92v-416h-270z" />
    <glyph glyph-name="l" unicode="l" horiz-adv-x="581" 
d="M156 0v1370h270v-1370h-270z" />
    <glyph glyph-name="m" unicode="m" horiz-adv-x="2408" 
d="M156 0v961h264v-193q40 120 133.5 165.5t298.5 45.5q191 0 296 -50.5t146 -162.5q37 117 140.5 165t314.5 48q278 0 391 -94t113 -324v-561h-271v543q0 129 -61.5 175t-234.5 46q-194 0 -270.5 -58t-76.5 -204v-502h-270v532q0 141 -59.5 187.5t-239.5 46.5
q-187 0 -265.5 -56.5t-78.5 -191.5v-518h-270z" />
    <glyph glyph-name="n" unicode="n" horiz-adv-x="1556" 
d="M156 0v961h264v-209q31 94 82.5 143t139.5 69.5t245 20.5q170 0 270 -28.5t160 -94.5q46 -53 65 -123.5t19 -189.5v-549h-271v537q0 56 -9.5 94t-30.5 65t-59.5 42t-92 21.5t-133.5 6.5q-212 0 -295.5 -62t-83.5 -219v-485h-270z" />
    <glyph glyph-name="o" unicode="o" horiz-adv-x="1562" 
d="M774 979q254 0 381.5 -25t194.5 -88q54 -51 74 -136.5t20 -266.5q0 -127 -23 -224t-63 -137q-57 -57 -144 -82q-56 -17 -183 -27.5t-267 -10.5q-143 0 -237.5 7t-171 29t-118.5 54.5t-70 92t-37 133t-9 185.5q0 163 23 251t79 138q55 49 146 72q54 14 178 24.5t227 10.5z
M821 774q-180 0 -259 -14.5t-113 -54.5q-29 -32 -41.5 -84.5t-12.5 -143.5q0 -65 5 -108t20.5 -77.5t39 -53.5t66 -31.5t94.5 -16.5t132 -4q267 0 331 37q47 28 66.5 83.5t19.5 164.5q0 68 -5 112.5t-20 80.5t-37.5 55.5t-64 33t-92.5 17.5t-129 4z" />
    <glyph glyph-name="p" unicode="p" horiz-adv-x="1599" 
d="M156 961h270v-179q35 117 125.5 157t316.5 40q221 0 343.5 -28.5t183.5 -94.5q86 -96 86 -375q0 -105 -10 -178.5t-37 -131t-67.5 -92.5t-108.5 -57.5t-153 -31t-208 -8.5q-232 0 -336 40.5t-135 141.5v-578h-270v1375zM645 199l225 -9q74 0 122.5 4t88 17t61 32.5
t36.5 55t19.5 79.5t4.5 111q0 91 -14.5 144.5t-48.5 85.5q-40 37 -127 47l-238 8q-79 0 -130 -4t-92.5 -17t-64 -32.5t-37.5 -56t-19.5 -81.5t-4.5 -114q0 -195 84 -238q59 -32 135 -32z" />
    <glyph glyph-name="q" unicode="q" horiz-adv-x="1591" 
d="M1436 961v-1375h-271v570q-23 -53 -55.5 -84t-87.5 -54q-84 -36 -315 -36q-126 0 -211.5 8t-154.5 30t-108.5 55.5t-66 92t-36 131.5t-9.5 180t10 180.5t37.5 132t69 92.5t113 56.5t160.5 30.5t220 8q272 0 361 -66q27 -21 45 -49.5t39 -87.5v185h260zM827 774
q-183 0 -266 -14t-115 -51q-28 -32 -39.5 -86.5t-11.5 -151.5q0 -68 4.5 -109.5t22.5 -76.5t44 -52t79.5 -29t116.5 -15t167 -3q234 0 291 66q22 25 34.5 83t12.5 132q0 97 -8 142.5t-31 80.5q-28 46 -97 65t-204 19z" />
    <glyph glyph-name="r" unicode="r" horiz-adv-x="1269" 
d="M156 0v961h260v-203q32 77 55.5 110.5t60.5 55.5q99 55 289 55q289 0 365 -135q45 -78 45 -240q0 -34 -2 -61h-256q0 101 -21 147q-39 74 -213 74q-170 0 -241.5 -62t-71.5 -208v-494h-270z" />
    <glyph glyph-name="s" unicode="s" horiz-adv-x="1505" 
d="M1071 692v8q0 41 -28.5 61.5t-99 29t-212.5 8.5q-130 0 -200.5 -10.5t-100 -35t-29.5 -69.5q0 -43 24 -62t87.5 -26.5t204.5 -7.5h149q188 0 277 -12t149 -46q103 -57 103 -229q0 -132 -50 -198.5t-171 -94.5q-118 -26 -484 -26q-249 0 -355.5 21.5t-160.5 82.5
q-35 38 -49 86t-14 125v10h282v-10q0 -31 5.5 -51t22.5 -36t42 -24.5t72 -14.5t103.5 -7.5t145.5 -1.5q139 0 208.5 10t97.5 34.5t28 72.5q0 49 -24.5 72.5t-86.5 32.5t-186 7q-173 -4 -377 4q-178 12 -249.5 73.5t-71.5 201.5q0 125 49 189.5t164 90.5q139 29 416 29
q223 0 327.5 -13t169.5 -48q103 -56 103 -220v-6h-281z" />
    <glyph glyph-name="t" unicode="t" horiz-adv-x="1232" 
d="M1139 414v-62q0 -132 -15.5 -191.5t-60.5 -99.5q-51 -43 -133 -61t-228 -18q-165 0 -253 22.5t-142 77.5q-35 37 -53.5 103.5t-13.5 138.5v16l4 428h-201v193h203v223h274v-223h610v-193h-612l-4 -383q0 -128 41 -165.5t182 -37.5q115 0 156 41q19 20 25 50.5t6 103.5v37
h215z" />
    <glyph glyph-name="u" unicode="u" horiz-adv-x="1556" 
d="M1401 961v-961h-264v209q-31 -94 -82 -143.5t-140 -70t-245 -20.5q-170 0 -270 28.5t-160 94.5q-46 53 -65 123.5t-19 190.5v549h270v-537q0 -71 13.5 -113.5t52 -69.5t98.5 -36.5t162 -9.5q212 0 295 61.5t83 218.5v486h271z" />
    <glyph glyph-name="v" unicode="v" horiz-adv-x="1398" 
d="M12 961h305l383 -762l383 762h303l-503 -961h-365z" />
    <glyph glyph-name="w" unicode="w" horiz-adv-x="2095" 
d="M41 961h289l284 -771l287 771h291l285 -771l290 771h287l-387 -961h-377l-243 686l-248 -686h-373z" />
    <glyph glyph-name="x" unicode="x" horiz-adv-x="1413" 
d="M31 0l469 504l-424 457h354l272 -314l279 314h348l-418 -447l471 -514h-348l-332 377l-329 -377h-342z" />
    <glyph glyph-name="y" unicode="y" horiz-adv-x="1345" 
d="M14 961h297l363 -775l358 775h297l-536 -1111q-46 -96 -71.5 -138t-59.5 -74q-90 -87 -297 -87q-31 0 -113 7v190q20 -2 43 -2q79 0 123.5 14.5t76.5 51t68 112.5l37 76h-113z" />
    <glyph glyph-name="z" unicode="z" horiz-adv-x="1308" 
d="M84 0v193l743 575h-702v193h1079v-211l-735 -560h750v-190h-1135z" />
    <glyph glyph-name="braceleft" unicode="{" horiz-adv-x="819" 
d="M741 1171h-20h-19h-6q-102 0 -145 -22q-43 -25 -55.5 -70t-12.5 -174v-176q0 -101 -25.5 -153.5t-95.5 -96.5q68 -43 94.5 -98t26.5 -154v-182q0 -97 5 -130.5t22 -64.5q20 -37 60 -51t122 -14h49v-217q-82 -4 -151 -4q-116 0 -185.5 17t-113.5 65.5t-60 124.5t-16 204
v226q0 83 -25.5 122.5t-87.5 53.5v215q62 14 87.5 52.5t25.5 119.5v223q0 123 16.5 198.5t60 123.5t113 66t183.5 18q87 0 153 -2v-220z" />
    <glyph glyph-name="bar" unicode="|" 
d="M365 1366h292v-1708h-292v1708z" />
    <glyph glyph-name="braceright" unicode="}" horiz-adv-x="819" 
d="M78 -215h18h27q84 0 123 14t61 51q17 29 21 59.5t6 135.5v182q0 100 26 154.5t95 97.5q-70 44 -95.5 96.5t-25.5 153.5v176q0 110 -6.5 150t-28.5 63q-29 32 -61 42.5t-99 10.5h-61v220q61 2 143 2q117 0 188 -17t115.5 -65t61 -123.5t16.5 -200.5v-223q0 -80 26 -119.5
t89 -52.5v-215q-63 -14 -89 -53.5t-26 -122.5v-226q0 -125 -15.5 -201t-58.5 -124.5t-111.5 -66t-180.5 -17.5q-66 0 -158 2v217z" />
    <glyph glyph-name="asciitilde" unicode="~" horiz-adv-x="1366" 
d="M305 1171l-117 76q41 91 78 141.5t80 75.5q31 17 73 30t68 13q83 0 218 -61q126 -57 188 -57q53 0 89 26.5t77 95.5l121 -71q-36 -71 -60 -106.5t-57 -67.5q-35 -32 -89 -54t-100 -22q-86 0 -194 51q-153 68 -217 68q-45 0 -82 -32.5t-76 -105.5z" />
    <glyph glyph-name="uni00A0" unicode="&#xa0;" horiz-adv-x="512" 
 />
    <glyph glyph-name="exclamdown" unicode="&#xa1;" horiz-adv-x="630" 
d="M446 465l15 -868h-305l16 868h274zM473 961v-316h-321v316h321z" />
    <glyph glyph-name="cent" unicode="&#xa2;" horiz-adv-x="1910" 
d="M1044 223v-176h-163v176q-167 6 -258.5 22.5t-149.5 51.5q-86 49 -124 149t-38 273t38.5 274.5t121.5 151.5q59 36 152 52.5t258 21.5v155h163v-155q108 -3 185 -11.5t138.5 -27t100 -45t65 -68.5t38 -94.5t14.5 -126.5h-278q-1 91 -59 127t-204 39v-582l15 2
q99 2 152 18.5t78 52.5t30 103h278q-4 -91 -22 -152t-54.5 -106t-102 -70.5t-154 -38.5t-220.5 -16zM881 430v582q-119 -3 -179 -23q-63 -26 -88.5 -86t-25.5 -180q0 -127 30 -190.5t101 -86.5q52 -13 162 -16z" />
    <glyph glyph-name="sterling" unicode="&#xa3;" horiz-adv-x="1910" 
d="M92 717h223v96q0 206 24 300.5t91 154.5t198 82t419 22q329 0 462.5 -24t196.5 -93q41 -46 59.5 -111.5t18.5 -168.5q0 -32 -2 -57h-297q2 8 2 24q0 60 -18.5 104.5t-49.5 59.5q-74 33 -372 33q-94 0 -197 -11t-135 -24q-85 -34 -99 -139q-4 -33 -4 -248h615v-193h-609
v-59q0 -102 -33 -148t-134 -84h1368v-233h-1663v233q90 -3 133 72q17 29 22.5 62.5t5.5 107.5v49h-225v193z" />
    <glyph glyph-name="currency" unicode="&#xa4;" horiz-adv-x="1472" 
d="M133 193l199 202q-96 131 -96 287q0 147 98 285l-205 202l113 115l202 -203q143 97 293 97q147 0 287 -97l203 201l112 -113l-202 -200q53 -76 76.5 -144t23.5 -145q0 -147 -96 -285l202 -200l-112 -115l-203 203q-138 -99 -291 -99q-76 0 -144 22.5t-147 74.5l-202 -201
zM741 993q-132 0 -224.5 -90t-92.5 -219q0 -132 91 -223.5t220 -91.5q130 0 222 91t92 220t-91 221t-217 92z" />
    <glyph glyph-name="yen" unicode="&#xa5;" horiz-adv-x="1910" 
d="M612 729h-407v191h252l-367 446h371l495 -604l496 604h369l-365 -446h250v-191h-403l-156 -188h547v-191h-588v-350h-297v350h-592v191h551z" />
    <glyph glyph-name="brokenbar" unicode="&#xa6;" 
d="M365 1366h292v-717h-292v717zM365 313h292v-655h-292v655z" />
    <glyph glyph-name="section" unicode="&#xa7;" horiz-adv-x="1910" 
d="M1348 979v29q0 63 -21 95.5t-72 47.5q-62 16 -311 16q-99 0 -158 -1.5t-109.5 -8t-74.5 -15.5t-41.5 -28t-21.5 -42t-4 -60q0 -45 6.5 -69t32 -41.5t66 -25t118.5 -14.5l581 -57q204 -22 278.5 -87.5t74.5 -225.5q0 -122 -36.5 -191t-119.5 -104q72 -31 98.5 -87
t26.5 -176q0 -108 -21 -175.5t-67 -108.5q-50 -43 -115 -60q-64 -17 -236 -28t-372 -11q-248 0 -366.5 20.5t-178.5 72.5q-67 59 -76 168q-4 54 -4 151h287q0 -100 16 -133q19 -37 108 -51.5t300 -14.5q310 0 383 33q55 24 55 135q0 80 -36 109.5t-154 42.5l-664 74
q-94 11 -130.5 21t-76.5 38q-57 36 -81.5 99t-24.5 167q0 109 36.5 169t127.5 98q-69 32 -98 88t-29 159q0 120 25.5 191.5t84.5 114.5q57 41 185 58t383 17q190 0 289 -3t172.5 -14.5t106 -30t64.5 -54.5q44 -50 58 -102.5t18 -194.5h-282zM729 332l541 -60
q92 34 120.5 69.5t28.5 115.5q0 91 -49 125q-33 21 -168 36l-559 60q-94 -26 -126 -64.5t-32 -124.5q0 -58 19.5 -87t69.5 -44.5t155 -25.5z" />
    <glyph glyph-name="dieresis" unicode="&#xa8;" 
d="M143 1139v180h283v-180h-283zM598 1139v180h283v-180h-283z" />
    <glyph glyph-name="copyright" unicode="&#xa9;" horiz-adv-x="1904" 
d="M952 1397q134 0 232.5 -5.5t184 -21.5t143 -40t104.5 -65t74 -91.5t45.5 -126t25 -161.5t6.5 -204q0 -242 -35.5 -379.5t-115.5 -206.5q-151 -127 -641 -127q-420 0 -586 72q-49 20 -90.5 51t-65.5 64q-96 134 -96 495q0 300 44.5 445t158.5 209q164 92 612 92zM934 1266
q-363 0 -494 -74q-73 -44 -96 -94q-61 -125 -61 -377q0 -259 33.5 -377t121.5 -164q85 -44 204 -62t327 -18q215 0 323.5 16.5t177.5 59.5q89 55 120.5 169.5t31.5 381.5q0 121 -9.5 200t-39.5 143t-74.5 99t-126.5 58.5t-183 31t-255 7.5zM1266 582h194v-17
q0 -99 -12 -145.5t-45 -75.5q-41 -38 -119.5 -50.5t-267.5 -12.5q-247 0 -327 8t-134 37q-65 35 -88 113t-23 263q0 160 24 232.5t87 107.5q56 29 134.5 38.5t279.5 9.5q84 0 141 -1.5t109.5 -7.5t84 -14t59.5 -24.5t41.5 -35t24.5 -50t15 -65.5t6 -85h-193q0 24 -1 38.5
t-6.5 29t-12 22.5t-23 15.5t-34.5 10.5t-50 5.5t-66 3t-87 0.5h-21q-65 0 -101 -0.5t-75 -4.5t-56.5 -8t-37 -17t-25 -25t-11.5 -39t-6.5 -50.5t-0.5 -68.5v-76.5t3.5 -59.5t4.5 -48.5t12 -34.5t17 -26.5t28.5 -16.5t36.5 -12t51 -4t63 -3h81q63 0 101 0.5t76.5 3t58.5 5
t39.5 10t27 15t14.5 22t8 29t1 38.5v21z" />
    <glyph glyph-name="ordfeminine" unicode="&#xaa;" horiz-adv-x="985" 
d="M293 948h-191q3 77 36 117t108.5 57t220.5 17q181 0 257 -14.5t114 -55.5q26 -31 34.5 -63.5t8.5 -100.5v-358h-189v61q-37 -46 -89 -58.5t-200 -12.5q-135 0 -202.5 16t-95 54.5t-27.5 115.5q0 50 10 81.5t33.5 54.5t70.5 34.5t111 16.5t166 5q104 0 142 -9t77 -44v33
q0 85 -35 102q-40 19 -168 19q-55 0 -85.5 -1.5t-54 -4.5t-33 -11.5t-14 -19.5t-5.5 -31zM467 801q-123 0 -162 -13.5t-39 -56.5q0 -32 16 -46.5t59 -20t138 -5.5q127 0 169 15t42 59q0 42 -42.5 55t-180.5 13z" />
    <glyph glyph-name="guillemotleft" unicode="&#xab;" horiz-adv-x="1206" 
d="M82 504l299 512l194 -117l-231 -397l231 -391l-194 -113zM592 504l299 512l194 -117l-231 -397l231 -391l-194 -113z" />
    <glyph glyph-name="logicalnot" unicode="&#xac;" horiz-adv-x="1581" 
d="M1026 0v354h-680v193h887v-547h-207z" />
    <glyph glyph-name="uni00AD" unicode="&#xad;" horiz-adv-x="698" 
d="M0 643h698v-264h-698v264z" />
    <glyph glyph-name="registered" unicode="&#xae;" horiz-adv-x="1904" 
d="M958 1397q134 0 232.5 -5.5t184 -21.5t143.5 -40t105 -65t74 -91.5t45.5 -126t25 -161.5t6.5 -204q0 -242 -36 -379.5t-116 -206.5q-151 -127 -641 -127q-420 0 -586 72q-102 42 -155 115q-97 135 -97 495q0 300 44.5 445t158.5 209q164 92 612 92zM940 1266
q-363 0 -494 -74q-73 -44 -96 -94q-61 -125 -61 -377q0 -259 33.5 -377t121.5 -164q85 -44 204 -62t327 -18q215 0 324 16.5t178 59.5q89 55 120 169t31 382q0 121 -9.5 200t-39.5 143t-74.5 99t-126.5 58.5t-183 31t-255 7.5zM465 289v794h690q174 0 240.5 -56.5
t66.5 -203.5q0 -95 -34 -141.5t-117 -65.5q75 -9 107 -46.5t32 -116.5v-164h-201v127q0 76 -26.5 98.5t-116.5 22.5h-442v-248h-199zM664 692h436q97 0 129.5 23.5t32.5 93.5q0 71 -31 94t-127 23h-440v-234z" />
    <glyph glyph-name="macron" unicode="&#xaf;" 
d="M133 1311h760v-164h-760v164z" />
    <glyph glyph-name="degree" unicode="&#xb0;" horiz-adv-x="821" 
d="M416 1372q123 0 211 -88.5t88 -210.5q0 -126 -89 -214.5t-216 -88.5q-126 0 -215 89t-89 216q0 123 90.5 210t219.5 87zM414 1239q-72 0 -122 -48.5t-50 -117.5q0 -71 50 -120.5t120 -49.5q69 0 118.5 49.5t49.5 118.5t-49 118.5t-117 49.5z" />
    <glyph glyph-name="plusminus" unicode="&#xb1;" horiz-adv-x="1818" 
d="M1008 918h544v-197h-544v-453h-197v453h-543v197h543v448h197v-448zM1552 197v-197h-1284v197h1284z" />
    <glyph glyph-name="twosuperior" unicode="&#xb2;" horiz-adv-x="1204" 
d="M119 1055v59q0 72 14.5 117t48.5 74q44 38 136.5 51.5t304.5 13.5q204 0 289.5 -15.5t125.5 -58.5q49 -55 49 -186q0 -77 -12 -122.5t-47.5 -76.5t-91 -45t-150.5 -20l-311 -21q-104 -6 -135 -27t-31 -87v-19h778v-145h-972v168q-3 141 59.5 196.5t231.5 63.5l315 22
q109 8 138.5 27.5t29.5 83.5q0 34 -5.5 52.5t-19 32.5t-48.5 19.5t-80.5 8t-129.5 2.5q-59 0 -93 -0.5t-70 -3.5t-53 -6.5t-34.5 -14t-23.5 -20t-12 -30t-6.5 -40t-0.5 -53.5h-194z" />
    <glyph glyph-name="threesuperior" unicode="&#xb3;" horiz-adv-x="1204" 
d="M487 1030h248q80 0 112 21.5t32 76.5q0 62 -44 79.5t-196 17.5q-218 0 -268 -13q-32 -9 -53 -41t-11 -57l2 -2v-22h-198q3 107 14.5 147.5t46.5 69.5q44 38 135 51.5t303 13.5q179 0 258.5 -9.5t128.5 -37.5q82 -45 82 -190q0 -79 -28 -117t-99 -55q83 -15 112.5 -53.5
t29.5 -129.5q0 -150 -88 -198q-49 -25 -116.5 -32t-250.5 -7q-281 0 -373 12q-162 24 -162 223v6v47h195v-14q0 -26 1 -41t6.5 -30.5t11.5 -23.5t24 -15.5t35 -10.5t52.5 -5t69 -2.5t91.5 -0.5q216 0 259.5 14t43.5 84q0 66 -27.5 85.5t-122.5 19.5h-256v139z" />
    <glyph glyph-name="acute" unicode="&#xb4;" 
d="M358 1098l-39 114l437 215l67 -184z" />
    <glyph glyph-name="mu" unicode="&#xb5;" horiz-adv-x="1556" 
d="M156 -418v1379h270v-480q0 -85 13 -132t46 -81q86 -80 293 -80q219 0 299 86q29 34 41 80t12 127v480h271v-961h-271v195q-19 -76 -55 -117q-38 -46 -116 -71t-181 -25t-180 25t-117 71q-37 45 -55 117v-613h-270z" />
    <glyph glyph-name="paragraph" unicode="&#xb6;" horiz-adv-x="1708" 
d="M696 -344v809q-217 0 -314 17t-151 65q-60 52 -86 139.5t-26 235.5q0 134 24.5 217.5t79.5 134.5t150 71.5t274 20.5h916v-164h-117v-1546h-266v1501h-217v-1501h-267z" />
    <glyph glyph-name="periodcentered" unicode="&#xb7;" horiz-adv-x="638" 
d="M156 326v319h327v-319h-327z" />
    <glyph glyph-name="cedilla" unicode="&#xb8;" 
d="M315 -346l207 266l164 -127l-266 -219z" />
    <glyph glyph-name="onesuperior" unicode="&#xb9;" horiz-adv-x="1198" 
d="M303 983l-102 135l360 248h246v-819h-201v655z" />
    <glyph glyph-name="ordmasculine" unicode="&#xba;" horiz-adv-x="1013" 
d="M504 1139q167 0 250.5 -17.5t126.5 -60.5q29 -31 40 -81.5t11 -152.5q0 -64 -6.5 -107t-26 -77.5t-48.5 -54t-80.5 -32t-115 -17t-159.5 -4.5q-91 0 -152 4.5t-110 17.5t-76 33t-45.5 56t-24.5 80.5t-6 111.5q0 65 6.5 109t25 79.5t47 56t78 34t111.5 18t154 4.5z
M530 1004q-61 0 -98.5 -2t-69 -9t-47 -17.5t-26.5 -31t-14 -45.5t-3 -65t2.5 -63.5t13.5 -44t26 -30t47.5 -16.5t70 -8.5t100.5 -1.5q134 0 171.5 30.5t37.5 139.5q0 104 -38.5 134t-172.5 30z" />
    <glyph glyph-name="guillemotright" unicode="&#xbb;" horiz-adv-x="1206" 
d="M1124 504l-299 -506l-194 113l231 391l-231 397l194 117zM614 504l-299 -506l-194 113l231 391l-231 397l194 117z" />
    <glyph glyph-name="onequarter" unicode="&#xbc;" horiz-adv-x="2789" 
d="M303 983l-102 135l360 248h246v-819h-201v655zM725 -4l1161 1374h174l-1161 -1374h-174zM1686 162v233l632 424h244v-508h135v-147h-135v-164h-195v162h-681zM1853 311h512v346z" />
    <glyph glyph-name="onehalf" unicode="&#xbd;" horiz-adv-x="2789" 
d="M303 983l-102 135l360 248h246v-819h-201v655zM725 -4l1161 1374h174l-1161 -1374h-174zM1704 510v59v21q0 139 92 190q51 26 139 35.5t273 9.5q206 0 290.5 -15t124.5 -58q50 -56 50 -187q0 -75 -13.5 -120t-44.5 -76q-32 -32 -83.5 -46t-159.5 -22l-312 -20
q-60 -5 -86 -10t-43 -15q-37 -23 -37 -92v-19h779v-145h-973v168q0 80 12 121t45 73q33 31 82.5 46t153.5 22l313 23q109 8 138.5 27t29.5 83q0 34 -5.5 52.5t-19 32.5t-48.5 19.5t-80.5 8t-129.5 2.5q-85 0 -132 -3t-83.5 -9.5t-51 -23t-20.5 -38t-6 -59.5v-35h-194z" />
    <glyph glyph-name="threequarters" unicode="&#xbe;" horiz-adv-x="2793" 
d="M487 1030h248q80 0 112 21.5t32 76.5q0 62 -44 79.5t-196 17.5q-218 0 -268 -13q-32 -9 -53 -41t-11 -57l2 -2v-22h-198q3 107 14.5 147.5t46.5 69.5q44 38 135 51.5t303 13.5q179 0 258.5 -9.5t128.5 -37.5q82 -45 82 -190q0 -79 -28 -117t-99 -55q83 -15 112.5 -53.5
t29.5 -129.5q0 -105 -39.5 -156.5t-132.5 -68.5q-56 -12 -299 -12q-269 0 -357 12q-162 27 -162 223v6v47h195v-16q0 -31 2.5 -49.5t13 -34.5t25 -23t46.5 -12.5t69 -6.5t100 -1q168 0 246 4q49 3 70.5 25t21.5 69q0 66 -27.5 85.5t-122.5 19.5h-256v139zM729 -4l1161 1374
h174l-1161 -1374h-174zM1692 162v233l632 424h244v-508h135v-147h-135v-164h-194v162h-682zM1860 311h512v346z" />
    <glyph glyph-name="questiondown" unicode="&#xbf;" horiz-adv-x="1583" 
d="M762 502h270q-1 -68 -6.5 -111.5t-22 -81.5t-41 -59.5t-71 -40t-103 -29.5t-145.5 -22q-126 -15 -176.5 -55.5t-50.5 -125.5q0 -105 65 -143q68 -39 328 -39q74 0 123.5 1t95 5.5t72.5 10.5t50.5 19t34.5 27t19.5 38.5t10.5 51t2 66.5v41h272v-35q0 -150 -19.5 -219
t-76.5 -120q-59 -53 -184.5 -73t-393.5 -20q-278 0 -405.5 25.5t-190.5 93.5q-72 78 -72 277q0 194 76 276q40 41 105.5 63t232.5 50l74 10q77 14 102 37.5t25 81.5zM1059 961v-297h-322v297h322z" />
    <glyph glyph-name="Agrave" unicode="&#xc0;" horiz-adv-x="1964" 
d="M1473 270h-975l-152 -270h-354l782 1366h428l770 -1366h-344zM1356 492l-371 653l-367 -653h738zM1155 1481l-557 121l72 210l534 -206z" />
    <glyph glyph-name="Aacute" unicode="&#xc1;" horiz-adv-x="1964" 
d="M1473 270h-975l-152 -270h-354l782 1366h428l770 -1366h-344zM1356 492l-371 653l-367 -653h738zM825 1481l-49 125l535 206l71 -210z" />
    <glyph glyph-name="Acircumflex" unicode="&#xc2;" horiz-adv-x="1964" 
d="M1473 270h-975l-152 -270h-354l782 1366h428l770 -1366h-344zM1356 492l-371 653l-367 -653h738zM983 1806l451 -213l-54 -112l-397 106l-399 -106l-54 112z" />
    <glyph glyph-name="Atilde" unicode="&#xc3;" horiz-adv-x="1964" 
d="M1473 270h-975l-152 -270h-354l782 1366h428l770 -1366h-344zM1356 492l-371 653l-367 -653h738zM698 1499l-161 51q78 228 249 228q50 0 103 -14t168 -56q76 -27 117 -27q76 0 100 97l162 -52q-79 -229 -254 -229q-86 0 -203 51q-117 47 -174 47q-78 0 -107 -96z" />
    <glyph glyph-name="Adieresis" unicode="&#xc4;" horiz-adv-x="1964" 
d="M1473 270h-975l-152 -270h-354l782 1366h428l770 -1366h-344zM1356 492l-371 653l-367 -653h738zM551 1522v200h330v-200h-330zM1083 1522v200h330v-200h-330z" />
    <glyph glyph-name="Aring" unicode="&#xc5;" horiz-adv-x="1964" 
d="M1473 270h-975l-152 -270h-354l782 1366h428l770 -1366h-344zM1356 492l-371 653l-367 -653h738zM985 1829q140 0 217.5 -46.5t77.5 -131.5q0 -89 -79.5 -137t-227.5 -48q-131 0 -210 48.5t-79 130.5q0 85 81.5 134.5t219.5 49.5zM985 1722q-73 0 -113.5 -20t-40.5 -57
q0 -72 138 -72q164 0 164 76q0 35 -38.5 54t-109.5 19z" />
    <glyph glyph-name="AE" unicode="&#xc6;" horiz-adv-x="2942" 
d="M-18 0l991 1366h1843v-240h-1130v-323h1071v-215h-1071v-348h1134v-240h-1431v268h-842l-193 -268h-372zM696 485h693v643h-224z" />
    <glyph glyph-name="Ccedilla" unicode="&#xc7;" horiz-adv-x="1990" 
d="M1540 492h305v-23q0 -146 -17.5 -226t-60.5 -126q-48 -54 -119 -80.5t-195 -37.5t-353 -11q-411 0 -543.5 13t-222.5 62q-115 63 -156 222q-28 109 -28 422q0 195 16 306.5t54.5 176.5t111.5 106q87 49 226 65.5t464 16.5q354 0 502.5 -25.5t214.5 -97.5q87 -93 90 -348
h-301q0 41 -2 67t-12 51t-22 38.5t-41 26.5t-60 18.5t-87.5 9.5t-115 5t-150.5 1q-242 0 -336 -8.5t-143 -34.5q-40 -21 -59.5 -61.5t-27 -118.5t-7.5 -231q0 -82 1.5 -133t10.5 -101t20 -76.5t38 -52t56 -35.5t82.5 -18.5t108 -10t142.5 -1.5l417 8q110 10 154.5 57.5
t44.5 153.5v31zM918 -438l-121 82l211 272l176 -129z" />
    <glyph glyph-name="Egrave" unicode="&#xc8;" horiz-adv-x="1771" 
d="M182 0v1366h1452v-240h-1140v-323h1085v-215h-1085v-348h1153v-240h-1465zM1100 1481l-557 121l71 210l535 -206z" />
    <glyph glyph-name="Eacute" unicode="&#xc9;" horiz-adv-x="1771" 
d="M182 0v1366h1452v-240h-1140v-323h1085v-215h-1085v-348h1153v-240h-1465zM745 1481l-49 125l535 206l72 -210z" />
    <glyph glyph-name="Ecircumflex" unicode="&#xca;" horiz-adv-x="1771" 
d="M182 0v1366h1452v-240h-1140v-323h1085v-215h-1085v-348h1153v-240h-1465zM911 1806l453 -213l-53 -112l-400 106l-397 -106l-55 112z" />
    <glyph glyph-name="Edieresis" unicode="&#xcb;" horiz-adv-x="1771" 
d="M182 0v1366h1452v-240h-1140v-323h1085v-215h-1085v-348h1153v-240h-1465zM479 1522v200h330v-200h-330zM1014 1522v200h329v-200h-329z" />
    <glyph glyph-name="Igrave" unicode="&#xcc;" horiz-adv-x="681" 
d="M182 0v1366h316v-1366h-316zM502 1481l-490 123l72 208l459 -206z" />
    <glyph glyph-name="Iacute" unicode="&#xcd;" horiz-adv-x="681" 
d="M184 0v1366h316v-1366h-316zM190 1481l-49 125l457 206l74 -208z" />
    <glyph glyph-name="Icircumflex" unicode="&#xce;" horiz-adv-x="681" 
d="M182 0v1366h316v-1366h-316zM340 1806l360 -215l-55 -110l-305 106l-303 -106l-57 110z" />
    <glyph glyph-name="Idieresis" unicode="&#xcf;" horiz-adv-x="681" 
d="M184 0v1366h316v-1366h-316zM8 1522v200h287v-200h-287zM389 1522v200h285v-200h-285z" />
    <glyph glyph-name="Eth" unicode="&#xd0;" horiz-adv-x="2105" 
d="M182 596h-174v199h174v571h1135q385 0 522 -149q63 -71 90 -197t27 -352q0 -228 -33 -353.5t-111 -197.5q-129 -117 -462 -117h-1168v596zM498 596v-346h784q162 0 242 45q60 32 86 115.5t26 242.5q0 99 -5.5 165.5t-21 120t-39.5 84.5t-65.5 51t-93.5 27t-129 7h-784
v-313h491v-199h-491z" />
    <glyph glyph-name="Ntilde" unicode="&#xd1;" horiz-adv-x="2174" 
d="M834 1499l-162 51q78 228 250 228q50 0 102.5 -14t169.5 -56q73 -27 117 -27q72 0 98 97l162 -52q-79 -229 -254 -229q-84 0 -203 51q-117 47 -174 47q-77 0 -106 -96zM182 0v1366h490l1026 -1137l-6 1137h301v-1366h-492l-1020 1130l6 -1130h-305z" />
    <glyph glyph-name="Ograve" unicode="&#xd2;" horiz-adv-x="2121" 
d="M1149 1380q250 0 381.5 -11t206 -39t127.5 -85q83 -91 100 -289q8 -84 8 -288q0 -256 -29.5 -376.5t-107.5 -189.5q-57 -50 -139 -75.5t-211 -32.5q-132 -8 -504 -8q-315 0 -437.5 14t-209.5 61q-141 77 -168 279q-16 120 -16 387q0 239 27.5 353.5t101.5 179.5
q55 49 134.5 74t211.5 36q117 10 524 10zM1063 1122h-159.5t-125 -5t-101.5 -7.5t-73.5 -18.5t-56.5 -25.5t-34.5 -42t-25 -54.5t-10 -75.5t-6.5 -93v-118.5q0 -200 19.5 -281t76.5 -110q57 -31 148.5 -39t384.5 -8q263 0 358.5 14.5t136.5 60.5q35 38 48.5 118t13.5 253
q0 205 -14 269q-18 87 -83 120q-69 36 -266 41q-68 2 -231 2zM1235 1481l-557 121l74 210l532 -206z" />
    <glyph glyph-name="Oacute" unicode="&#xd3;" horiz-adv-x="2121" 
d="M1149 1380q250 0 381.5 -11t206 -39t127.5 -85q83 -91 100 -289q8 -84 8 -288q0 -256 -29.5 -376.5t-107.5 -189.5q-57 -50 -139 -75.5t-211 -32.5q-132 -8 -504 -8q-315 0 -437.5 14t-209.5 61q-141 77 -168 279q-16 120 -16 387q0 239 27.5 353.5t101.5 179.5
q55 49 134.5 74t211.5 36q117 10 524 10zM1063 1122h-159.5t-125 -5t-101.5 -7.5t-73.5 -18.5t-56.5 -25.5t-34.5 -42t-25 -54.5t-10 -75.5t-6.5 -93v-118.5q0 -200 19.5 -281t76.5 -110q57 -31 148.5 -39t384.5 -8q263 0 358.5 14.5t136.5 60.5q35 38 48.5 118t13.5 253
q0 205 -14 269q-18 87 -83 120q-69 36 -266 41q-68 2 -231 2zM891 1481l-49 125l534 206l72 -210z" />
    <glyph glyph-name="Ocircumflex" unicode="&#xd4;" horiz-adv-x="2121" 
d="M1149 1380q250 0 381.5 -11t206 -39t127.5 -85q83 -91 100 -289q8 -84 8 -288q0 -256 -29.5 -376.5t-107.5 -189.5q-57 -50 -139 -75.5t-211 -32.5q-132 -8 -504 -8q-315 0 -437.5 14t-209.5 61q-141 77 -168 279q-16 120 -16 387q0 239 27.5 353.5t101.5 179.5
q55 49 134.5 74t211.5 36q117 10 524 10zM1063 1122h-159.5t-125 -5t-101.5 -7.5t-73.5 -18.5t-56.5 -25.5t-34.5 -42t-25 -54.5t-10 -75.5t-6.5 -93v-118.5q0 -200 19.5 -281t76.5 -110q57 -31 148.5 -39t384.5 -8q263 0 358.5 14.5t136.5 60.5q35 38 48.5 118t13.5 253
q0 205 -14 269q-18 87 -83 120q-69 36 -266 41q-68 2 -231 2zM1061 1806l452 -213l-55 -112l-397 106l-399 -106l-54 112z" />
    <glyph glyph-name="Otilde" unicode="&#xd5;" horiz-adv-x="2121" 
d="M1149 1380q250 0 381.5 -11t206 -39t127.5 -85q83 -91 100 -289q8 -84 8 -288q0 -256 -29.5 -376.5t-107.5 -189.5q-57 -50 -139 -75.5t-211 -32.5q-132 -8 -504 -8q-315 0 -437.5 14t-209.5 61q-141 77 -168 279q-16 120 -16 387q0 239 27.5 353.5t101.5 179.5
q55 49 134.5 74t211.5 36q117 10 524 10zM1063 1122h-159.5t-125 -5t-101.5 -7.5t-73.5 -18.5t-56.5 -25.5t-34.5 -42t-25 -54.5t-10 -75.5t-6.5 -93v-118.5q0 -200 19.5 -281t76.5 -110q57 -31 148.5 -39t384.5 -8q263 0 358.5 14.5t136.5 60.5q35 38 48.5 118t13.5 253
q0 205 -14 269q-18 87 -83 120q-69 36 -266 41q-68 2 -231 2zM778 1499l-160 51q78 228 248 228q51 0 104.5 -14t168.5 -56q76 -27 116 -27q75 0 101 97l160 -52q-79 -229 -254 -229q-84 0 -203 51q-117 47 -172 47q-76 0 -109 -96z" />
    <glyph glyph-name="Odieresis" unicode="&#xd6;" horiz-adv-x="2121" 
d="M1149 1380q250 0 381.5 -11t206 -39t127.5 -85q83 -91 100 -289q8 -84 8 -288q0 -256 -29.5 -376.5t-107.5 -189.5q-57 -50 -139 -75.5t-211 -32.5q-132 -8 -504 -8q-315 0 -437.5 14t-209.5 61q-141 77 -168 279q-16 120 -16 387q0 239 27.5 353.5t101.5 179.5
q55 49 134.5 74t211.5 36q117 10 524 10zM1063 1122h-159.5t-125 -5t-101.5 -7.5t-73.5 -18.5t-56.5 -25.5t-34.5 -42t-25 -54.5t-10 -75.5t-6.5 -93v-118.5q0 -200 19.5 -281t76.5 -110q57 -31 148.5 -39t384.5 -8q263 0 358.5 14.5t136.5 60.5q35 38 48.5 118t13.5 253
q0 205 -14 269q-18 87 -83 120q-69 36 -266 41q-68 2 -231 2zM629 1522v200h329v-200h-329zM1163 1522v200h330v-200h-330z" />
    <glyph glyph-name="multiply" unicode="&#xd7;" horiz-adv-x="1818" 
d="M909 834l381 383l140 -140l-381 -383l364 -364l-139 -140l-365 365l-383 -383l-139 139l383 383l-367 365l140 139z" />
    <glyph glyph-name="Oslash" unicode="&#xd8;" horiz-adv-x="2142" 
d="M80 -20v204l115 72q-22 79 -28.5 166t-6.5 307q0 235 26 345.5t97 178.5q96 87 254 107q93 12 209 16t393 4q251 0 381 -9.5t205 -33.5t130 -75l207 124v-204l-116 -72q22 -68 29 -155t7 -273q0 -219 -15 -323t-58 -181q-66 -114 -234 -162q-117 -30 -551 -30
q-361 0 -498.5 9t-224.5 40q-64 22 -114 69zM1653 938l-1061 -653q53 -26 143.5 -33.5t372.5 -7.5q264 0 360.5 14.5t137.5 60.5q35 38 48 117t13 252q0 184 -14 250zM494 432l1060 653q-68 24 -144.5 30t-338.5 7h-55q-229 2 -333 -14t-144 -59q-32 -37 -45 -118t-13 -251
q0 -168 13 -248z" />
    <glyph glyph-name="Ugrave" unicode="&#xd9;" horiz-adv-x="2041" 
d="M1194 1481l-557 121l72 210l534 -206zM1554 1366h316v-860q0 -195 -37 -290t-135 -150q-87 -51 -220 -65.5t-497 -14.5q-355 0 -498.5 28t-218.5 113q-53 60 -71.5 148.5t-18.5 277.5v813h315v-715q0 -132 1.5 -163t9.5 -76q7 -46 23.5 -74t47.5 -49t91 -30.5t140.5 -14
t209.5 -4.5q323 0 401 20q117 29 135 156q4 25 6 215v735z" />
    <glyph glyph-name="Uacute" unicode="&#xda;" horiz-adv-x="2041" 
d="M852 1481l-49 125l534 206l72 -210zM1554 1366h316v-860q0 -195 -37 -290t-135 -150q-87 -51 -220 -65.5t-497 -14.5q-355 0 -498.5 28t-218.5 113q-53 60 -71.5 148.5t-18.5 277.5v813h315v-715q0 -132 1.5 -163t9.5 -76q7 -46 23.5 -74t47.5 -49t91 -30.5t140.5 -14
t209.5 -4.5q323 0 401 20q117 29 135 156q4 25 6 215v735z" />
    <glyph glyph-name="Ucircumflex" unicode="&#xdb;" horiz-adv-x="2041" 
d="M1022 1806l453 -213l-56 -112l-397 106l-399 -106l-54 112zM1554 1366h316v-860q0 -195 -37 -290t-135 -150q-87 -51 -220 -65.5t-497 -14.5q-355 0 -498.5 28t-218.5 113q-53 60 -71.5 148.5t-18.5 277.5v813h315v-715q0 -132 1.5 -163t9.5 -76q7 -46 23.5 -74t47.5 -49
t91 -30.5t140.5 -14t209.5 -4.5q323 0 401 20q117 29 135 156q4 25 6 215v735z" />
    <glyph glyph-name="Udieresis" unicode="&#xdc;" horiz-adv-x="2041" 
d="M590 1522v200h330v-200h-330zM1124 1522v200h330v-200h-330zM1554 1366h316v-860q0 -195 -37 -290t-135 -150q-87 -51 -220 -65.5t-497 -14.5q-355 0 -498.5 28t-218.5 113q-53 60 -71.5 148.5t-18.5 277.5v813h315v-715q0 -132 1.5 -163t9.5 -76q7 -46 23.5 -74
t47.5 -49t91 -30.5t140.5 -14t209.5 -4.5q323 0 401 20q117 29 135 156q4 25 6 215v735z" />
    <glyph glyph-name="Yacute" unicode="&#xdd;" horiz-adv-x="1880" 
d="M944 764l533 602h401l-778 -852v-514h-316v514l-784 852h408zM782 1481l-49 125l533 206l73 -210z" />
    <glyph glyph-name="Thorn" unicode="&#xde;" horiz-adv-x="1886" 
d="M182 0v1366h316v-188h772q177 0 264 -20.5t143 -74.5q54 -53 77.5 -132t23.5 -212q0 -95 -9.5 -162t-33.5 -119.5t-60.5 -85t-96 -54t-135 -29.5t-181.5 -8h-764v-281h-316zM498 535h688q164 0 218 38t54 154q0 117 -53.5 157t-210.5 40h-696v-389z" />
    <glyph glyph-name="germandbls" unicode="&#xdf;" horiz-adv-x="1591" 
d="M156 0v952q0 134 24 210t82 128q66 58 192.5 80.5t389.5 22.5q309 0 416 -62q116 -66 116 -239q0 -142 -73 -193q-31 -23 -65.5 -33.5t-102.5 -19.5q106 -9 167 -34t97 -73q71 -92 71 -293q0 -250 -111 -356t-374 -106q-246 0 -346 80.5t-100 277.5q0 19 2 31h235
q3 -80 15 -105q34 -78 170 -78q63 0 112.5 14.5t71.5 39.5q47 50 47 223q0 90 -11 142.5t-43.5 86t-84.5 45t-140 11.5h-301v194h252q130 0 181 26.5t51 92.5q0 74 -60 101.5t-221 27.5q-94 0 -150.5 -3t-104.5 -15.5t-71 -29.5t-39 -53t-20 -78.5t-4 -113.5v-901h-270z" />
    <glyph glyph-name="agrave" unicode="&#xe0;" horiz-adv-x="1517" 
d="M430 682h-272q3 80 22.5 127t63.5 82q63 51 165 69.5t312 18.5q278 0 394 -22t175 -87q43 -47 57.5 -103t14.5 -173v-594h-270v154q-26 -100 -115.5 -136t-312.5 -36q-195 0 -290.5 11t-146.5 40q-58 32 -85 92t-27 156q0 51 5 89.5t18 71.5t33 55.5t53.5 41t75 29
t102 18t130.5 10t164 2.5q105 0 170.5 -5.5t111.5 -20t69.5 -37.5t39.5 -62v105q0 52 -3.5 84t-17.5 59t-34 40t-61 22t-89.5 11.5t-127.5 2.5q-146 0 -207.5 -8t-86.5 -30.5t-30 -76.5zM727 432q-221 0 -291 -33q-25 -10 -39 -38.5t-14 -65.5q0 -57 30 -87t99 -40
q50 -6 231 -6q145 0 216.5 11.5t101 41t29.5 88.5q0 77 -52 96q-73 33 -311 33zM907 1098l-465 145l68 184l436 -215z" />
    <glyph glyph-name="aacute" unicode="&#xe1;" horiz-adv-x="1517" 
d="M430 682h-272q3 80 22.5 127t63.5 82q63 51 165 69.5t312 18.5q278 0 394 -22t175 -87q43 -47 57.5 -103t14.5 -173v-594h-270v154q-26 -100 -115.5 -136t-312.5 -36q-195 0 -290.5 11t-146.5 40q-58 32 -85 92t-27 156q0 51 5 89.5t18 71.5t33 55.5t53.5 41t75 29
t102 18t130.5 10t164 2.5q105 0 170.5 -5.5t111.5 -20t69.5 -37.5t39.5 -62v105q0 52 -3.5 84t-17.5 59t-34 40t-61 22t-89.5 11.5t-127.5 2.5q-146 0 -207.5 -8t-86.5 -30.5t-30 -76.5zM727 432q-221 0 -291 -33q-25 -10 -39 -38.5t-14 -65.5q0 -57 30 -87t99 -40
q50 -6 231 -6q145 0 216.5 11.5t101 41t29.5 88.5q0 77 -52 96q-73 33 -311 33zM618 1098l-40 114l438 215l65 -184z" />
    <glyph glyph-name="acircumflex" unicode="&#xe2;" horiz-adv-x="1517" 
d="M430 682h-272q3 80 22.5 127t63.5 82q63 51 165 69.5t312 18.5q278 0 394 -22t175 -87q43 -47 57.5 -103t14.5 -173v-594h-270v154q-26 -100 -115.5 -136t-312.5 -36q-195 0 -290.5 11t-146.5 40q-58 32 -85 92t-27 156q0 51 5 89.5t18 71.5t33 55.5t53.5 41t75 29
t102 18t130.5 10t164 2.5q105 0 170.5 -5.5t111.5 -20t69.5 -37.5t39.5 -62v105q0 52 -3.5 84t-17.5 59t-34 40t-61 22t-89.5 11.5t-127.5 2.5q-146 0 -207.5 -8t-86.5 -30.5t-30 -76.5zM727 432q-221 0 -291 -33q-25 -10 -39 -38.5t-14 -65.5q0 -57 30 -87t99 -40
q50 -6 231 -6q145 0 216.5 11.5t101 41t29.5 88.5q0 77 -52 96q-73 33 -311 33zM760 1423l379 -223l-41 -104l-338 129l-338 -129l-43 104z" />
    <glyph glyph-name="atilde" unicode="&#xe3;" horiz-adv-x="1517" 
d="M430 682h-272q3 80 22.5 127t63.5 82q63 51 165 69.5t312 18.5q278 0 394 -22t175 -87q43 -47 57.5 -103t14.5 -173v-594h-270v154q-26 -100 -115.5 -136t-312.5 -36q-195 0 -290.5 11t-146.5 40q-58 32 -85 92t-27 156q0 51 5 89.5t18 71.5t33 55.5t53.5 41t75 29
t102 18t130.5 10t164 2.5q105 0 170.5 -5.5t111.5 -20t69.5 -37.5t39.5 -62v105q0 52 -3.5 84t-17.5 59t-34 40t-61 22t-89.5 11.5t-127.5 2.5q-146 0 -207.5 -8t-86.5 -30.5t-30 -76.5zM727 432q-221 0 -291 -33q-25 -10 -39 -38.5t-14 -65.5q0 -57 30 -87t99 -40
q50 -6 231 -6q145 0 216.5 11.5t101 41t29.5 88.5q0 77 -52 96q-73 33 -311 33zM1001 1376l156 -51q-71 -205 -227 -205q-68 0 -185 51q-82 37 -129 37q-32 0 -56 -22.5t-34 -63.5l-157 52q43 96 88 141q24 24 67 42.5t74 18.5q62 0 184 -53q70 -33 119 -33q35 0 62.5 23
t37.5 63z" />
    <glyph glyph-name="adieresis" unicode="&#xe4;" horiz-adv-x="1517" 
d="M430 682h-272q3 80 22.5 127t63.5 82q63 51 165 69.5t312 18.5q278 0 394 -22t175 -87q43 -47 57.5 -103t14.5 -173v-594h-270v154q-26 -100 -115.5 -136t-312.5 -36q-195 0 -290.5 11t-146.5 40q-58 32 -85 92t-27 156q0 51 5 89.5t18 71.5t33 55.5t53.5 41t75 29
t102 18t130.5 10t164 2.5q105 0 170.5 -5.5t111.5 -20t69.5 -37.5t39.5 -62v105q0 52 -3.5 84t-17.5 59t-34 40t-61 22t-89.5 11.5t-127.5 2.5q-146 0 -207.5 -8t-86.5 -30.5t-30 -76.5zM727 432q-221 0 -291 -33q-25 -10 -39 -38.5t-14 -65.5q0 -57 30 -87t99 -40
q50 -6 231 -6q145 0 216.5 11.5t101 41t29.5 88.5q0 77 -52 96q-73 33 -311 33zM391 1139v180h283v-180h-283zM846 1139v180h282v-180h-282z" />
    <glyph glyph-name="aring" unicode="&#xe5;" horiz-adv-x="1517" 
d="M430 682h-272q3 80 22.5 127t63.5 82q63 51 165 69.5t312 18.5q278 0 394 -22t175 -87q43 -47 57.5 -103t14.5 -173v-594h-270v154q-26 -100 -115.5 -136t-312.5 -36q-195 0 -290.5 11t-146.5 40q-58 32 -85 92t-27 156q0 51 5 89.5t18 71.5t33 55.5t53.5 41t75 29
t102 18t130.5 10t164 2.5q105 0 170.5 -5.5t111.5 -20t69.5 -37.5t39.5 -62v105q0 52 -3.5 84t-17.5 59t-34 40t-61 22t-89.5 11.5t-127.5 2.5q-146 0 -207.5 -8t-86.5 -30.5t-30 -76.5zM727 432q-221 0 -291 -33q-25 -10 -39 -38.5t-14 -65.5q0 -57 30 -87t99 -40
q50 -6 231 -6q145 0 216.5 11.5t101 41t29.5 88.5q0 77 -52 96q-73 33 -311 33zM762 1438q132 0 204 -44.5t72 -127.5q0 -88 -73.5 -134.5t-212.5 -46.5q-124 0 -197.5 47.5t-73.5 127.5q0 83 74.5 130.5t206.5 47.5zM764 1337q-150 0 -150 -77q0 -74 131 -74q84 0 122 18
t38 58q0 75 -141 75z" />
    <glyph glyph-name="ae" unicode="&#xe6;" horiz-adv-x="2471" 
d="M434 684h-276q2 91 31 148.5t92 89.5q62 34 152 45.5t294 11.5q171 0 249.5 -8.5t139.5 -34.5q92 -38 115 -135q21 67 73.5 105t149 55.5t254.5 17.5q351 0 483 -72q83 -46 119.5 -142t36.5 -271v-68h-993v-20q0 -79 13.5 -124.5t55.5 -74t108.5 -38t182.5 -9.5
q160 0 226 10t98 41q34 34 37 90h270q-6 -181 -147 -258q-63 -34 -171 -47.5t-307 -13.5q-179 0 -280 15.5t-156 52t-82 104.5q-15 -41 -38 -67.5t-64 -49.5q-57 -31 -145.5 -43t-258.5 -12q-219 0 -308 10t-148 41q-125 70 -125 260q0 194 106 250q60 31 159 42t314 11
q115 0 178.5 -4t110 -18t68.5 -36t43 -63v90q0 92 -15 135.5t-53 65.5q-32 19 -109 26t-251 7q-138 0 -182.5 -22t-49.5 -93zM819 432q-191 0 -279 -10t-122.5 -37t-34.5 -86q0 -82 57.5 -109.5t227.5 -27.5q66 0 186.5 6t132.5 10q105 27 105 123q0 72 -61 101.5t-212 29.5
zM2075 590v16q0 111 -78 154q-41 22 -101 29.5t-184 7.5q-150 0 -215.5 -13.5t-99.5 -50.5q-43 -52 -43 -143h721z" />
    <glyph glyph-name="ccedilla" unicode="&#xe7;" horiz-adv-x="1515" 
d="M1126 365h281q-2 -92 -22.5 -155t-61.5 -108.5t-114 -71t-172 -37t-244 -11.5q-201 0 -319.5 16t-184.5 53q-89 49 -128.5 150t-39.5 278q0 176 39 278.5t125 149.5q129 72 487 72q149 0 249.5 -11t174 -35t114.5 -68.5t61 -106t22 -152.5h-277v8q3 35 -17.5 69.5
t-54.5 55.5q-60 35 -278 35q-147 0 -214 -14.5t-101 -54.5q-56 -65 -56 -226q0 -175 68 -237q34 -32 105.5 -44t236.5 -12q178 0 246.5 38.5t74.5 140.5zM561 -346l209 266l164 -127l-268 -219z" />
    <glyph glyph-name="egrave" unicode="&#xe8;" horiz-adv-x="1503" 
d="M1386 428h-989q0 -158 58 -213t354 -55q170 0 235 29t74 110h266q-6 -151 -92 -223q-63 -51 -175.5 -71.5t-325.5 -20.5q-353 0 -467 51q-111 51 -157 150t-46 290q0 155 27.5 248.5t89.5 150.5q64 60 178.5 81.5t365.5 21.5q231 0 340.5 -25.5t171.5 -93.5
q51 -59 71.5 -139.5t20.5 -226.5v-64zM397 588h721q0 74 -24 121q-21 41 -54 57q-82 35 -239 35t-219.5 -7t-104.5 -30q-80 -45 -80 -164v-12zM909 1098l-465 145l68 184l436 -215z" />
    <glyph glyph-name="eacute" unicode="&#xe9;" horiz-adv-x="1503" 
d="M1386 428h-989q0 -158 58 -213t354 -55q170 0 235 29t74 110h266q-6 -151 -92 -223q-63 -51 -175.5 -71.5t-325.5 -20.5q-353 0 -467 51q-111 51 -157 150t-46 290q0 155 27.5 248.5t89.5 150.5q64 60 178.5 81.5t365.5 21.5q231 0 340.5 -25.5t171.5 -93.5
q51 -59 71.5 -139.5t20.5 -226.5v-64zM397 588h721q0 74 -24 121q-21 41 -54 57q-82 35 -239 35t-219.5 -7t-104.5 -30q-80 -45 -80 -164v-12zM623 1098l-41 114l438 215l65 -184z" />
    <glyph glyph-name="ecircumflex" unicode="&#xea;" horiz-adv-x="1503" 
d="M1386 428h-989q0 -158 58 -213t354 -55q170 0 235 29t74 110h266q-6 -151 -92 -223q-63 -51 -175.5 -71.5t-325.5 -20.5q-353 0 -467 51q-111 51 -157 150t-46 290q0 155 27.5 248.5t89.5 150.5q64 60 178.5 81.5t365.5 21.5q231 0 340.5 -25.5t171.5 -93.5
q51 -59 71.5 -139.5t20.5 -226.5v-64zM397 588h721q0 74 -24 121q-21 41 -54 57q-82 35 -239 35t-219.5 -7t-104.5 -30q-80 -45 -80 -164v-12zM762 1423l381 -223l-43 -104l-338 129l-338 -129l-41 104z" />
    <glyph glyph-name="edieresis" unicode="&#xeb;" horiz-adv-x="1503" 
d="M1386 428h-989q0 -158 58 -213t354 -55q170 0 235 29t74 110h266q-6 -151 -92 -223q-63 -51 -175.5 -71.5t-325.5 -20.5q-353 0 -467 51q-111 51 -157 150t-46 290q0 155 27.5 248.5t89.5 150.5q64 60 178.5 81.5t365.5 21.5q231 0 340.5 -25.5t171.5 -93.5
q51 -59 71.5 -139.5t20.5 -226.5v-64zM397 588h721q0 74 -24 121q-21 41 -54 57q-82 35 -239 35t-219.5 -7t-104.5 -30q-80 -45 -80 -164v-12zM395 1139v180h283v-180h-283zM850 1139v180h283v-180h-283z" />
    <glyph glyph-name="igrave" unicode="&#xec;" horiz-adv-x="581" 
d="M156 0v961h270v-961h-270zM424 1098l-410 147l68 182l385 -215z" />
    <glyph glyph-name="iacute" unicode="&#xed;" horiz-adv-x="581" 
d="M156 0v961h270v-961h-270zM160 1098l-41 114l383 215l69 -182z" />
    <glyph glyph-name="icircumflex" unicode="&#xee;" horiz-adv-x="581" 
d="M156 0v961h270v-961h-270zM291 1423l309 -223l-45 -104l-264 129l-264 -129l-45 104z" />
    <glyph glyph-name="idieresis" unicode="&#xef;" horiz-adv-x="581" 
d="M156 0v961h270v-961h-270zM0 1139v180h244v-180h-244zM340 1139v180h244v-180h-244z" />
    <glyph glyph-name="eth" unicode="&#xf0;" horiz-adv-x="1562" 
d="M844 1135l-139 -76l-91 112l131 74q-104 112 -167 178l247 37q57 -50 127 -117l144 78l98 -110l-137 -80l45 -49q127 -135 170 -188.5t90 -135.5q44 -76 63 -163.5t19 -215.5q0 -83 -5 -143t-20 -113t-37 -88t-61 -63.5t-86 -44.5t-119 -27t-153.5 -14.5t-194.5 -3.5
q-144 0 -239 7t-172 29t-119 54.5t-70.5 92t-37.5 133t-9 185.5q0 163 23 251t79 138q124 105 471 105q192 0 328 -43q-124 149 -178 201zM743 774q-76 0 -127 -4.5t-92 -17.5t-64.5 -33t-39 -55t-20.5 -78.5t-5 -108.5t5 -108t20.5 -77.5t39 -53.5t66.5 -31.5t95.5 -16.5
t132.5 -4q248 0 313 29q54 23 79 80.5t25 161.5q0 54 -3 92t-12.5 72t-23 56t-38 40.5t-54.5 28.5t-75.5 16.5t-97.5 9t-124 2.5z" />
    <glyph glyph-name="ntilde" unicode="&#xf1;" horiz-adv-x="1556" 
d="M156 0v961h264v-209q31 94 82.5 143t139.5 69.5t245 20.5q170 0 270 -28.5t160 -94.5q46 -53 65 -123.5t19 -189.5v-549h-271v537q0 56 -9.5 94t-30.5 65t-59.5 42t-92 21.5t-133.5 6.5q-212 0 -295.5 -62t-83.5 -219v-485h-270zM1008 1376l155 -51q-71 -205 -225 -205
q-69 0 -186 51q-82 37 -129 37q-32 0 -56.5 -22.5t-34.5 -63.5l-155 52q25 57 43.5 87t44.5 54q25 25 67 43t74 18q63 0 182 -53q73 -33 119 -33q37 0 63.5 23t37.5 63z" />
    <glyph glyph-name="ograve" unicode="&#xf2;" horiz-adv-x="1562" 
d="M774 979q254 0 381.5 -25t194.5 -88q54 -51 74 -136.5t20 -266.5q0 -127 -23 -224t-63 -137q-57 -57 -144 -82q-56 -17 -183 -27.5t-267 -10.5q-143 0 -237.5 7t-171 29t-118.5 54.5t-70 92t-37 133t-9 185.5q0 163 23 251t79 138q55 49 146 72q54 14 178 24.5t227 10.5z
M821 774q-180 0 -259 -14.5t-113 -54.5q-29 -32 -41.5 -84.5t-12.5 -143.5q0 -65 5 -108t20.5 -77.5t39 -53.5t66 -31.5t94.5 -16.5t132 -4q267 0 331 37q47 28 66.5 83.5t19.5 164.5q0 68 -5 112.5t-20 80.5t-37.5 55.5t-64 33t-92.5 17.5t-129 4zM930 1098l-463 145
l65 184l439 -215z" />
    <glyph glyph-name="oacute" unicode="&#xf3;" horiz-adv-x="1562" 
d="M774 979q254 0 381.5 -25t194.5 -88q54 -51 74 -136.5t20 -266.5q0 -127 -23 -224t-63 -137q-57 -57 -144 -82q-56 -17 -183 -27.5t-267 -10.5q-143 0 -237.5 7t-171 29t-118.5 54.5t-70 92t-37 133t-9 185.5q0 163 23 251t79 138q55 49 146 72q54 14 178 24.5t227 10.5z
M821 774q-180 0 -259 -14.5t-113 -54.5q-29 -32 -41.5 -84.5t-12.5 -143.5q0 -65 5 -108t20.5 -77.5t39 -53.5t66 -31.5t94.5 -16.5t132 -4q267 0 331 37q47 28 66.5 83.5t19.5 164.5q0 68 -5 112.5t-20 80.5t-37.5 55.5t-64 33t-92.5 17.5t-129 4zM643 1098l-39 114
l436 215l68 -184z" />
    <glyph glyph-name="ocircumflex" unicode="&#xf4;" horiz-adv-x="1562" 
d="M774 979q254 0 381.5 -25t194.5 -88q54 -51 74 -136.5t20 -266.5q0 -127 -23 -224t-63 -137q-57 -57 -144 -82q-56 -17 -183 -27.5t-267 -10.5q-143 0 -237.5 7t-171 29t-118.5 54.5t-70 92t-37 133t-9 185.5q0 163 23 251t79 138q55 49 146 72q54 14 178 24.5t227 10.5z
M821 774q-180 0 -259 -14.5t-113 -54.5q-29 -32 -41.5 -84.5t-12.5 -143.5q0 -65 5 -108t20.5 -77.5t39 -53.5t66 -31.5t94.5 -16.5t132 -4q267 0 331 37q47 28 66.5 83.5t19.5 164.5q0 68 -5 112.5t-20 80.5t-37.5 55.5t-64 33t-92.5 17.5t-129 4zM782 1423l379 -223
l-41 -104l-338 129l-338 -129l-43 104z" />
    <glyph glyph-name="otilde" unicode="&#xf5;" horiz-adv-x="1562" 
d="M774 979q254 0 381.5 -25t194.5 -88q54 -51 74 -136.5t20 -266.5q0 -127 -23 -224t-63 -137q-57 -57 -144 -82q-56 -17 -183 -27.5t-267 -10.5q-143 0 -237.5 7t-171 29t-118.5 54.5t-70 92t-37 133t-9 185.5q0 163 23 251t79 138q55 49 146 72q54 14 178 24.5t227 10.5z
M821 774q-180 0 -259 -14.5t-113 -54.5q-29 -32 -41.5 -84.5t-12.5 -143.5q0 -65 5 -108t20.5 -77.5t39 -53.5t66 -31.5t94.5 -16.5t132 -4q267 0 331 37q47 28 66.5 83.5t19.5 164.5q0 68 -5 112.5t-20 80.5t-37.5 55.5t-64 33t-92.5 17.5t-129 4zM1026 1376l156 -51
q-34 -101 -91.5 -153t-134.5 -52q-69 0 -186 51q-82 37 -129 37q-65 0 -90 -86l-156 52q25 57 43.5 87t44.5 54q25 25 67.5 43t74.5 18q62 0 184 -53q70 -33 117 -33q37 0 63.5 22.5t36.5 63.5z" />
    <glyph glyph-name="odieresis" unicode="&#xf6;" horiz-adv-x="1562" 
d="M774 979q254 0 381.5 -25t194.5 -88q54 -51 74 -136.5t20 -266.5q0 -127 -23 -224t-63 -137q-57 -57 -144 -82q-56 -17 -183 -27.5t-267 -10.5q-143 0 -237.5 7t-171 29t-118.5 54.5t-70 92t-37 133t-9 185.5q0 163 23 251t79 138q55 49 146 72q54 14 178 24.5t227 10.5z
M821 774q-180 0 -259 -14.5t-113 -54.5q-29 -32 -41.5 -84.5t-12.5 -143.5q0 -65 5 -108t20.5 -77.5t39 -53.5t66 -31.5t94.5 -16.5t132 -4q267 0 331 37q47 28 66.5 83.5t19.5 164.5q0 68 -5 112.5t-20 80.5t-37.5 55.5t-64 33t-92.5 17.5t-129 4zM414 1139v180h282v-180
h-282zM868 1139v180h283v-180h-283z" />
    <glyph glyph-name="divide" unicode="&#xf7;" horiz-adv-x="1818" 
d="M266 799h1286v-195h-1286v195zM762 1221h293v-287h-293v287zM762 467h293v-287h-293v287z" />
    <glyph glyph-name="oslash" unicode="&#xf8;" horiz-adv-x="1585" 
d="M72 125l94 57q-21 76 -28 132.5t-7 156.5q0 85 5 146.5t19 115.5t35 89.5t58.5 65t83.5 45.5t115.5 27.5t149 15t189.5 3.5q235 0 355 -21.5t202 -78.5l173 104v-152l-97 -59q33 -109 33 -268q0 -182 -24.5 -276.5t-84.5 -141.5q-69 -57 -189 -80.5t-343 -23.5
q-256 0 -378 20t-189 74l-172 -103v152zM418 330l674 405q-46 22 -110.5 30.5t-184.5 8.5q-244 0 -308 -37q-46 -26 -66 -90t-20 -182q0 -85 15 -135zM1165 627l-671 -404q53 -22 120 -29.5t209 -7.5q78 0 130 4.5t94 17.5t65.5 32.5t39 54.5t21 79t5.5 109q0 74 -13 144z
" />
    <glyph glyph-name="ugrave" unicode="&#xf9;" horiz-adv-x="1556" 
d="M1401 961v-961h-264v209q-31 -94 -82 -143.5t-140 -70t-245 -20.5q-170 0 -270 28.5t-160 94.5q-46 53 -65 123.5t-19 190.5v549h270v-537q0 -71 13.5 -113.5t52 -69.5t98.5 -36.5t162 -9.5q212 0 295 61.5t83 218.5v486h271zM922 1098l-463 145l65 184l439 -215z" />
    <glyph glyph-name="uacute" unicode="&#xfa;" horiz-adv-x="1556" 
d="M1401 961v-961h-264v209q-31 -94 -82 -143.5t-140 -70t-245 -20.5q-170 0 -270 28.5t-160 94.5q-46 53 -65 123.5t-19 190.5v549h270v-537q0 -71 13.5 -113.5t52 -69.5t98.5 -36.5t162 -9.5q212 0 295 61.5t83 218.5v486h271zM639 1098l-39 114l436 215l68 -184z" />
    <glyph glyph-name="ucircumflex" unicode="&#xfb;" horiz-adv-x="1556" 
d="M1401 961v-961h-264v209q-31 -94 -82 -143.5t-140 -70t-245 -20.5q-170 0 -270 28.5t-160 94.5q-46 53 -65 123.5t-19 190.5v549h270v-537q0 -71 13.5 -113.5t52 -69.5t98.5 -36.5t162 -9.5q212 0 295 61.5t83 218.5v486h271zM778 1423l381 -223l-43 -104l-338 129
l-338 -129l-41 104z" />
    <glyph glyph-name="udieresis" unicode="&#xfc;" horiz-adv-x="1556" 
d="M1401 961v-961h-264v209q-31 -94 -82 -143.5t-140 -70t-245 -20.5q-170 0 -270 28.5t-160 94.5q-46 53 -65 123.5t-19 190.5v549h270v-537q0 -71 13.5 -113.5t52 -69.5t98.5 -36.5t162 -9.5q212 0 295 61.5t83 218.5v486h271zM410 1139v180h282v-180h-282zM864 1139v180
h283v-180h-283z" />
    <glyph glyph-name="yacute" unicode="&#xfd;" horiz-adv-x="1345" 
d="M14 961h297l363 -775l358 775h297l-536 -1111q-46 -96 -71.5 -138t-59.5 -74q-90 -87 -297 -87q-31 0 -113 7v190q20 -2 43 -2q79 0 123.5 14.5t76.5 51t68 112.5l37 76h-113zM535 1098l-39 114l436 215l67 -184z" />
    <glyph glyph-name="thorn" unicode="&#xfe;" horiz-adv-x="1599" 
d="M156 1370h270v-588q35 117 125.5 157t316.5 40q221 0 343.5 -28.5t183.5 -94.5q86 -96 86 -375q0 -105 -10 -178.5t-37 -131t-67.5 -92.5t-108.5 -57.5t-153 -31t-208 -8.5q-232 0 -336 40.5t-135 141.5v-578h-270v1784zM645 199l225 -9q74 0 122.5 4t88 17t61 32.5
t36.5 55t19.5 79.5t4.5 111q0 91 -14.5 144.5t-48.5 85.5q-40 37 -127 47l-238 8q-79 0 -130 -4t-92.5 -17t-64 -32.5t-37.5 -56t-19.5 -81.5t-4.5 -114q0 -195 84 -238q59 -32 135 -32z" />
    <glyph glyph-name="ydieresis" unicode="&#xff;" horiz-adv-x="1345" 
d="M14 961h297l363 -775l358 775h297l-536 -1111q-46 -96 -71.5 -138t-59.5 -74q-90 -87 -297 -87q-31 0 -113 7v190q20 -2 43 -2q79 0 123.5 14.5t76.5 51t68 112.5l37 76h-113zM303 1139v180h283v-180h-283zM758 1139v180h282v-180h-282z" />
    <glyph glyph-name="Amacron" unicode="&#x100;" horiz-adv-x="1964" 
d="M541 1712h882v-182h-882v182zM1473 270h-975l-152 -270h-354l782 1366h428l770 -1366h-344zM1356 492l-371 653l-367 -653h738z" />
    <glyph glyph-name="amacron" unicode="&#x101;" horiz-adv-x="1517" 
d="M379 1311h760v-164h-760v164zM430 682h-272q3 80 22.5 127t63.5 82q63 51 165 69.5t312 18.5q278 0 394 -22t175 -87q43 -47 57.5 -103t14.5 -173v-594h-270v154q-26 -100 -115.5 -136t-312.5 -36q-195 0 -290.5 11t-146.5 40q-58 32 -85 92t-27 156q0 51 5 89.5t18 71.5
t33 55.5t53.5 41t75 29t102 18t130.5 10t164 2.5q105 0 170.5 -5.5t111.5 -20t69.5 -37.5t39.5 -62v105q0 52 -3.5 84t-17.5 59t-34 40t-61 22t-89.5 11.5t-127.5 2.5q-146 0 -207.5 -8t-86.5 -30.5t-30 -76.5zM727 432q-221 0 -291 -33q-25 -10 -39 -38.5t-14 -65.5
q0 -57 30 -87t99 -40q50 -6 231 -6q145 0 216.5 11.5t101 41t29.5 88.5q0 77 -52 96q-73 33 -311 33z" />
    <glyph glyph-name="Abreve" unicode="&#x102;" horiz-adv-x="1964" 
d="M1473 270h-975l-152 -270h-354l782 1366h428l770 -1366h-344zM1356 492l-371 653l-367 -653h738zM543 1784h209q8 -91 53 -121.5t172 -30.5q94 0 140.5 12.5t67 43.5t25.5 96h211q-12 -94 -36 -150.5t-75.5 -92t-127 -48t-199.5 -12.5q-166 0 -253.5 26t-129.5 89
t-57 188z" />
    <glyph glyph-name="abreve" unicode="&#x103;" horiz-adv-x="1517" 
d="M430 682h-272q3 80 22.5 127t63.5 82q63 51 165 69.5t312 18.5q278 0 394 -22t175 -87q43 -47 57.5 -103t14.5 -173v-594h-270v154q-26 -100 -115.5 -136t-312.5 -36q-195 0 -290.5 11t-146.5 40q-58 32 -85 92t-27 156q0 51 5 89.5t18 71.5t33 55.5t53.5 41t75 29
t102 18t130.5 10t164 2.5q105 0 170.5 -5.5t111.5 -20t69.5 -37.5t39.5 -62v105q0 52 -3.5 84t-17.5 59t-34 40t-61 22t-89.5 11.5t-127.5 2.5q-146 0 -207.5 -8t-86.5 -30.5t-30 -76.5zM727 432q-221 0 -291 -33q-25 -10 -39 -38.5t-14 -65.5q0 -57 30 -87t99 -40
q50 -6 231 -6q145 0 216.5 11.5t101 41t29.5 88.5q0 77 -52 96q-73 33 -311 33zM393 1386h187q6 -92 43.5 -121.5t146.5 -29.5q114 0 150.5 28.5t44.5 122.5h186q-14 -122 -50 -183t-111 -86t-218 -25t-218.5 25t-111.5 86.5t-49 182.5z" />
    <glyph glyph-name="Aogonek" unicode="&#x104;" horiz-adv-x="1964" 
d="M1202 1366l770 -1366h-4q-115 -57 -166 -104.5t-51 -98.5q0 -44 37.5 -70t103.5 -26q41 0 101 14v-147q-64 -19 -125 -19q-130 0 -215.5 63.5t-85.5 160.5q0 138 188 227h-127l-153 270h-977l-152 -270h-354l782 1366h428zM1356 492l-371 653l-367 -653h738z" />
    <glyph glyph-name="aogonek" unicode="&#x105;" horiz-adv-x="1517" 
d="M1362 594v-596q-107 -63 -144.5 -101.5t-37.5 -84.5q0 -37 34 -60.5t89 -23.5q39 0 88 16v-133q-56 -19 -109 -19q-120 0 -195 57t-75 146q0 118 166 205h-84v154q-24 -71 -68 -107t-126 -50.5t-236 -14.5q-195 0 -290.5 11t-146.5 40q-58 32 -85 92t-27 156q0 51 5 89.5
t18 71.5t33 55.5t53.5 41t75 29t102 18t130.5 10t164 2.5q105 0 170.5 -5.5t111.5 -20t69.5 -37.5t39.5 -62v105q0 52 -3.5 84t-17.5 59t-34 40t-61 22t-89.5 11.5t-127.5 2.5q-146 0 -207.5 -8t-86.5 -30.5t-30 -76.5h-272q3 80 22.5 127t63.5 82q63 51 164.5 69.5
t312.5 18.5q279 0 395.5 -22.5t173.5 -86.5q43 -47 57.5 -103t14.5 -173zM729 432q-144 0 -215.5 -11.5t-101 -40t-29.5 -85.5t30 -87t99 -40q50 -6 233 -6q127 0 189 7t100 26q26 14 42 43t16 65q0 33 -14.5 60t-37.5 36q-73 33 -311 33z" />
    <glyph glyph-name="Cacute" unicode="&#x106;" horiz-adv-x="1990" 
d="M1540 492h305v-23q0 -146 -17.5 -226t-60.5 -126q-48 -54 -119 -80.5t-195 -37.5t-353 -11q-411 0 -543.5 13t-222.5 62q-115 63 -156 222q-28 109 -28 422q0 195 16 306.5t54.5 176.5t111.5 106q87 49 226 65.5t464 16.5q354 0 502.5 -25.5t214.5 -97.5q87 -93 90 -348
h-301q0 41 -2 67t-12 51t-22 38.5t-41 26.5t-60 18.5t-87.5 9.5t-115 5t-150.5 1q-242 0 -336 -8.5t-143 -34.5q-40 -21 -59.5 -61.5t-27 -118.5t-7.5 -231q0 -82 1.5 -133t10.5 -101t20 -76.5t38 -52t56 -35.5t82.5 -18.5t108 -10t142.5 -1.5l417 8q110 10 154.5 57.5
t44.5 153.5v31zM842 1481l-49 125l532 206l74 -210z" />
    <glyph glyph-name="cacute" unicode="&#x107;" horiz-adv-x="1515" 
d="M1126 365h281q-2 -92 -22.5 -155t-61.5 -108.5t-114 -71t-172 -37t-244 -11.5q-201 0 -319.5 16t-184.5 53q-89 49 -128.5 150t-39.5 278q0 176 39 278.5t125 149.5q129 72 487 72q149 0 249.5 -11t174 -35t114.5 -68.5t61 -106t22 -152.5h-277v8q3 35 -17.5 69.5
t-54.5 55.5q-60 35 -278 35q-147 0 -214 -14.5t-101 -54.5q-56 -65 -56 -226q0 -175 68 -237q34 -32 105.5 -44t236.5 -12q178 0 246.5 38.5t74.5 140.5zM629 1098l-39 114l436 215l68 -184z" />
    <glyph glyph-name="Ccircumflex" unicode="&#x108;" horiz-adv-x="1990" 
d="M1540 492h305v-23q0 -146 -17.5 -226t-60.5 -126q-48 -54 -119 -80.5t-195 -37.5t-353 -11q-411 0 -543.5 13t-222.5 62q-115 63 -156 222q-28 109 -28 422q0 195 16 306.5t54.5 176.5t111.5 106q87 49 226 65.5t464 16.5q354 0 502.5 -25.5t214.5 -97.5q87 -93 90 -348
h-301q0 41 -2 67t-12 51t-22 38.5t-41 26.5t-60 18.5t-87.5 9.5t-115 5t-150.5 1q-242 0 -336 -8.5t-143 -34.5q-40 -21 -59.5 -61.5t-27 -118.5t-7.5 -231q0 -82 1.5 -133t10.5 -101t20 -76.5t38 -52t56 -35.5t82.5 -18.5t108 -10t142.5 -1.5l417 8q110 10 154.5 57.5
t44.5 153.5v31zM1006 1806l452 -213l-55 -112l-397 106l-398 -106l-55 112z" />
    <glyph glyph-name="Cdotaccent" unicode="&#x10a;" horiz-adv-x="1990" 
d="M1540 492h305v-23q0 -146 -17.5 -226t-60.5 -126q-48 -54 -119 -80.5t-195 -37.5t-353 -11q-411 0 -543.5 13t-222.5 62q-115 63 -156 222q-28 109 -28 422q0 195 16 306.5t54.5 176.5t111.5 106q87 49 226 65.5t464 16.5q354 0 502.5 -25.5t214.5 -97.5q87 -93 90 -348
h-301q0 41 -2 67t-12 51t-22 38.5t-41 26.5t-60 18.5t-87.5 9.5t-115 5t-150.5 1q-242 0 -336 -8.5t-143 -34.5q-40 -21 -59.5 -61.5t-27 -118.5t-7.5 -231q0 -82 1.5 -133t10.5 -101t20 -76.5t38 -52t56 -35.5t82.5 -18.5t108 -10t142.5 -1.5l417 8q110 10 154.5 57.5
t44.5 153.5v31zM836 1520v204h340v-204h-340z" />
    <glyph glyph-name="cdotaccent" unicode="&#x10b;" horiz-adv-x="1515" 
d="M1126 365h281q-2 -92 -22.5 -155t-61.5 -108.5t-114 -71t-172 -37t-244 -11.5q-201 0 -319.5 16t-184.5 53q-89 49 -128.5 150t-39.5 278q0 176 39 278.5t125 149.5q129 72 487 72q149 0 249.5 -11t174 -35t114.5 -68.5t61 -106t22 -152.5h-277v8q3 35 -17.5 69.5
t-54.5 55.5q-60 35 -278 35q-147 0 -214 -14.5t-101 -54.5q-56 -65 -56 -226q0 -175 68 -237q34 -32 105.5 -44t236.5 -12q178 0 246.5 38.5t74.5 140.5zM625 1139v184h286v-184h-286z" />
    <glyph glyph-name="Ccaron" unicode="&#x10c;" horiz-adv-x="1990" 
d="M1540 492h305v-23q0 -146 -17.5 -226t-60.5 -126q-48 -54 -119 -80.5t-195 -37.5t-353 -11q-411 0 -543.5 13t-222.5 62q-115 63 -156 222q-28 109 -28 422q0 195 16 306.5t54.5 176.5t111.5 106q87 49 226 65.5t464 16.5q354 0 502.5 -25.5t214.5 -97.5q87 -93 90 -348
h-301q0 41 -2 67t-12 51t-22 38.5t-41 26.5t-60 18.5t-87.5 9.5t-115 5t-150.5 1q-242 0 -336 -8.5t-143 -34.5q-40 -21 -59.5 -61.5t-27 -118.5t-7.5 -231q0 -82 1.5 -133t10.5 -101t20 -76.5t38 -52t56 -35.5t82.5 -18.5t108 -10t142.5 -1.5l417 8q110 10 154.5 57.5
t44.5 153.5v31zM1006 1481l-453 213l55 112l398 -106l397 106l55 -112z" />
    <glyph glyph-name="ccaron" unicode="&#x10d;" horiz-adv-x="1515" 
d="M1126 365h281q-2 -92 -22.5 -155t-61.5 -108.5t-114 -71t-172 -37t-244 -11.5q-201 0 -319.5 16t-184.5 53q-89 49 -128.5 150t-39.5 278q0 176 39 278.5t125 149.5q129 72 487 72q149 0 249.5 -11t174 -35t114.5 -68.5t61 -106t22 -152.5h-277v8q3 35 -17.5 69.5
t-54.5 55.5q-60 35 -278 35q-147 0 -214 -14.5t-101 -54.5q-56 -65 -56 -226q0 -175 68 -237q34 -32 105.5 -44t236.5 -12q178 0 246.5 38.5t74.5 140.5zM768 1096l-381 221l43 106l338 -131l338 131l41 -106z" />
    <glyph glyph-name="Dcaron" unicode="&#x10e;" horiz-adv-x="2105" 
d="M182 0v1366h1135q383 0 520 -149q63 -71 90 -197t27 -352q0 -228 -33 -353.5t-111 -197.5q-126 -117 -460 -117h-1168zM498 250h782q162 0 242 45q60 32 86 115.5t26 242.5q0 99 -5.5 165.5t-21 120t-39.5 84.5t-65.5 51t-93.5 27t-129 7h-782v-858zM1006 1481l-453 213
l55 112l398 -106l397 106l55 -112z" />
    <glyph glyph-name="dcaron" unicode="&#x10f;" horiz-adv-x="1800" 
d="M1442 0h-262v182q-49 -120 -144 -160t-327 -40q-202 0 -319 26t-177 86q-51 51 -72.5 135t-21.5 230q0 204 33.5 300.5t121.5 147.5q132 72 439 72q244 0 342 -53q37 -20 62.5 -47t53.5 -74v565h271v-1370zM823 774q-181 0 -261.5 -14t-112.5 -51q-56 -65 -56 -232
q0 -177 62 -233q44 -38 137 -47q10 -1 110.5 -5t122.5 -4q129 0 197.5 15.5t99.5 50.5q25 28 39.5 85.5t14.5 127.5q0 69 -5 114t-20 81.5t-38 56.5t-65 33.5t-94 17.5t-131 4zM1565 1370h260v-178q0 -73 -9.5 -107t-37.5 -59q-28 -26 -76.5 -36.5t-142.5 -10.5v108h14
q44 0 67 23q27 31 17 51v2v23h-92v184z" />
    <glyph glyph-name="Dcroat" unicode="&#x110;" horiz-adv-x="2105" 
d="M182 596h-174v199h174v571h1135q385 0 522 -149q63 -71 90 -197t27 -352q0 -228 -33 -353.5t-111 -197.5q-129 -117 -462 -117h-1168v596zM498 596v-346h784q162 0 242 45q60 32 86 115.5t26 242.5q0 99 -5.5 165.5t-21 120t-39.5 84.5t-65.5 51t-93.5 27t-129 7h-784
v-313h491v-199h-491z" />
    <glyph glyph-name="dcroat" unicode="&#x111;" horiz-adv-x="1597" 
d="M1171 1098h-333v145h333v127h271v-127h155v-145h-155v-1098h-262v182q-49 -120 -143.5 -160t-325.5 -40q-201 0 -318.5 26.5t-177.5 85.5q-51 51 -72.5 135t-21.5 230q0 204 33.5 301.5t121.5 148.5q132 72 439 72q244 0 342 -53q37 -20 61.5 -47t52.5 -76v293zM823 776
q-180 0 -260 -14t-114 -51q-54 -66 -54 -232q0 -180 62 -233q43 -40 137 -49q8 -1 109.5 -5t123.5 -4q128 0 197 15.5t98 50.5q25 28 39.5 85.5t14.5 127.5t-5 115t-20 82t-38 57t-65 33.5t-94 17.5t-131 4z" />
    <glyph glyph-name="Emacron" unicode="&#x112;" horiz-adv-x="1771" 
d="M469 1712h885v-182h-885v182zM182 0v1366h1452v-240h-1140v-323h1085v-215h-1085v-348h1153v-240h-1465z" />
    <glyph glyph-name="emacron" unicode="&#x113;" horiz-adv-x="1503" 
d="M383 1311h760v-164h-760v164zM1386 428h-989q0 -158 58 -213t354 -55q170 0 235 29t74 110h266q-6 -151 -92 -223q-63 -51 -175.5 -71.5t-325.5 -20.5q-353 0 -467 51q-111 51 -157 150t-46 290q0 155 27.5 248.5t89.5 150.5q64 60 178.5 81.5t365.5 21.5
q231 0 340.5 -25.5t171.5 -93.5q51 -59 71.5 -139.5t20.5 -226.5v-64zM397 588h721q0 74 -24 121q-21 41 -54 57q-82 35 -239 35t-219.5 -7t-104.5 -30q-80 -45 -80 -164v-12z" />
    <glyph glyph-name="Ebreve" unicode="&#x114;" horiz-adv-x="1771" 
d="M182 0v1366h1452v-240h-1140v-323h1085v-215h-1085v-348h1153v-240h-1465zM469 1784h209q6 -90 51 -121t172 -31q138 0 183.5 29t52.5 123h211q-10 -75 -27.5 -125t-48 -86t-81 -55.5t-117.5 -28t-167 -8.5t-167 8.5t-118 28t-80.5 55.5t-47 86t-25.5 125z" />
    <glyph glyph-name="ebreve" unicode="&#x115;" horiz-adv-x="1503" 
d="M1386 428h-989q0 -158 58 -213t354 -55q170 0 235 29t74 110h266q-6 -151 -92 -223q-63 -51 -175.5 -71.5t-325.5 -20.5q-353 0 -467 51q-111 51 -157 150t-46 290q0 155 27.5 248.5t89.5 150.5q64 60 178.5 81.5t365.5 21.5q231 0 340.5 -25.5t171.5 -93.5
q51 -59 71.5 -139.5t20.5 -226.5v-64zM397 588h721q0 74 -24 121q-21 41 -54 57q-82 35 -239 35t-219.5 -7t-104.5 -30q-80 -45 -80 -164v-12zM393 1386h187q4 -92 41.5 -121.5t148.5 -29.5q113 0 150 29t43 122h188q-20 -177 -96 -235.5t-283 -58.5q-143 0 -218.5 25
t-111.5 86.5t-49 182.5z" />
    <glyph glyph-name="Edotaccent" unicode="&#x116;" horiz-adv-x="1771" 
d="M182 0v1366h1452v-240h-1140v-323h1085v-215h-1085v-348h1153v-240h-1465zM741 1520v204h340v-204h-340z" />
    <glyph glyph-name="edotaccent" unicode="&#x117;" horiz-adv-x="1503" 
d="M1386 428h-989q0 -158 58 -213t354 -55q170 0 235 29t74 110h266q-6 -151 -92 -223q-63 -51 -175.5 -71.5t-325.5 -20.5q-353 0 -467 51q-111 51 -157 150t-46 290q0 155 27.5 248.5t89.5 150.5q64 60 178.5 81.5t365.5 21.5q231 0 340.5 -25.5t171.5 -93.5
q51 -59 71.5 -139.5t20.5 -226.5v-64zM397 588h721q0 74 -24 121q-21 41 -54 57q-82 35 -239 35t-219.5 -7t-104.5 -30q-80 -45 -80 -164v-12zM621 1139v184h286v-184h-286z" />
    <glyph glyph-name="Eogonek" unicode="&#x118;" horiz-adv-x="1771" 
d="M1647 0h-25q-117 -59 -167 -106t-50 -99q0 -43 38.5 -68.5t102.5 -25.5q44 0 101 14v-147q-64 -19 -125 -19q-130 0 -215.5 63.5t-85.5 160.5q0 71 45 125.5t143 101.5h-1227v1366h1452v-240h-1140v-323h1085v-215h-1085v-348h1153v-240z" />
    <glyph glyph-name="eogonek" unicode="&#x119;" horiz-adv-x="1503" 
d="M1194 -248v-133q-53 -18 -111 -18q-120 0 -195 56.5t-75 145.5q0 57 32 100t107 87l-254 -6q-174 0 -281.5 22t-175.5 80.5t-94 149.5t-26 239q0 155 27.5 248.5t89.5 150.5q64 60 179 81.5t367 21.5q230 0 339 -25.5t171 -93.5q51 -57 71.5 -138.5t20.5 -227.5v-64h-989
v-20q0 -74 21 -130t55 -75q81 -41 336 -41q169 0 234.5 29t74.5 108h266q-7 -123 -49 -178.5t-170 -114.5q-184 -90 -184 -186q0 -37 34 -60.5t89 -23.5q41 0 90 16zM397 588h723q0 70 -26 121q-21 41 -54 57q-82 35 -239 35t-219.5 -7t-104.5 -30q-38 -22 -60.5 -67.5
t-19.5 -96.5v-12z" />
    <glyph glyph-name="Ecaron" unicode="&#x11a;" horiz-adv-x="1771" 
d="M182 0v1366h1452v-240h-1140v-323h1085v-215h-1085v-348h1153v-240h-1465zM911 1481l-452 213l55 112l397 -106l400 106l53 -112z" />
    <glyph glyph-name="ecaron" unicode="&#x11b;" horiz-adv-x="1503" 
d="M1386 428h-989q0 -158 58 -213t354 -55q170 0 235 29t74 110h266q-6 -151 -92 -223q-63 -51 -175.5 -71.5t-325.5 -20.5q-353 0 -467 51q-111 51 -157 150t-46 290q0 155 27.5 248.5t89.5 150.5q64 60 178.5 81.5t365.5 21.5q231 0 340.5 -25.5t171.5 -93.5
q51 -59 71.5 -139.5t20.5 -226.5v-64zM397 588h721q0 74 -24 121q-21 41 -54 57q-82 35 -239 35t-219.5 -7t-104.5 -30q-80 -45 -80 -164v-12zM764 1096l-381 221l43 106l338 -131l338 131l41 -106z" />
    <glyph glyph-name="Gcircumflex" unicode="&#x11c;" horiz-adv-x="2050" 
d="M1030 1806l453 -213l-56 -112l-397 106l-397 -106l-55 112zM987 731h916v-145q0 -185 -13.5 -273.5t-50.5 -156.5q-59 -106 -215 -146q-55 -13 -173.5 -17.5t-428.5 -4.5q-274 0 -417 10t-206 35q-98 37 -151.5 101t-75.5 173q-22 107 -22 363q0 270 22 384.5t88 186.5
q86 93 246 113q169 24 674 24q299 0 431 -26.5t197 -100.5q88 -98 88 -323h-309q-2 65 -12 95.5t-39 53.5q-39 32 -113.5 41.5t-275.5 9.5q-261 0 -375 -5t-167 -19t-81 -47q-32 -37 -44.5 -114.5t-12.5 -237.5q0 -199 15.5 -285t58.5 -123q45 -40 138.5 -52t369.5 -12
q196 0 281.5 4.5t127.5 16.5t72 41q65 62 65 203v26h-608v207z" />
    <glyph glyph-name="gcircumflex" unicode="&#x11d;" horiz-adv-x="1597" 
d="M1442 961v-867q0 -222 -35.5 -320t-136.5 -155q-72 -40 -197 -57t-346 -17q-305 0 -422 64q-73 40 -113 112.5t-40 165.5v9h274v-9q3 -82 82 -116q68 -29 268 -29q72 0 120.5 2t93 9t71.5 17t50 30t34.5 43.5t20 62.5t10.5 82t2 106v86q-32 -67 -74 -104
q-95 -82 -373 -82q-129 0 -218.5 8.5t-160.5 31t-113 56.5t-70 91.5t-38 129.5t-10 176q0 106 9.5 178t37 129.5t69.5 91t114 55.5t162.5 30t223.5 8q160 0 249 -20t130 -66q36 -41 62 -127v195h264zM807 772q-180 0 -256.5 -14t-108.5 -53q-28 -31 -39.5 -79.5
t-11.5 -131.5q0 -99 14 -154t46 -84q44 -37 127 -47q9 -1 108.5 -4.5t126.5 -3.5q78 0 130 4t94 16.5t65.5 31t39 52.5t20.5 75.5t5 104.5q0 85 -8 127.5t-31 77.5q-31 49 -95.5 65.5t-225.5 16.5zM791 1423l380 -223l-43 -104l-337 129l-338 -129l-41 104z" />
    <glyph glyph-name="Gbreve" unicode="&#x11e;" horiz-adv-x="2050" 
d="M596 1784h209q4 -91 50 -121.5t175 -30.5q135 0 181.5 30t52.5 122h209q-15 -124 -57 -187.5t-129.5 -89.5t-252.5 -26q-125 0 -201 13t-127.5 48.5t-75 91.5t-34.5 150zM987 731h916v-145q0 -185 -13.5 -273.5t-50.5 -156.5q-59 -106 -215 -146q-55 -13 -173.5 -17.5
t-428.5 -4.5q-274 0 -417 10t-206 35q-98 37 -151.5 101t-75.5 173q-22 107 -22 363q0 270 22 384.5t88 186.5q86 93 246 113q169 24 674 24q299 0 431 -26.5t197 -100.5q88 -98 88 -323h-309q-2 65 -12 95.5t-39 53.5q-39 32 -113.5 41.5t-275.5 9.5q-261 0 -375 -5
t-167 -19t-81 -47q-32 -37 -44.5 -114.5t-12.5 -237.5q0 -199 15.5 -285t58.5 -123q45 -40 138.5 -52t369.5 -12q196 0 281.5 4.5t127.5 16.5t72 41q65 62 65 203v26h-608v207z" />
    <glyph glyph-name="gbreve" unicode="&#x11f;" horiz-adv-x="1597" 
d="M1442 961v-867q0 -222 -35.5 -320t-136.5 -155q-72 -40 -197 -57t-346 -17q-305 0 -422 64q-73 40 -113 112.5t-40 165.5v9h274v-9q3 -82 82 -116q68 -29 268 -29q72 0 120.5 2t93 9t71.5 17t50 30t34.5 43.5t20 62.5t10.5 82t2 106v86q-32 -67 -74 -104
q-95 -82 -373 -82q-129 0 -218.5 8.5t-160.5 31t-113 56.5t-70 91.5t-38 129.5t-10 176q0 106 9.5 178t37 129.5t69.5 91t114 55.5t162.5 30t223.5 8q160 0 249 -20t130 -66q36 -41 62 -127v195h264zM807 772q-180 0 -256.5 -14t-108.5 -53q-28 -31 -39.5 -79.5
t-11.5 -131.5q0 -99 14 -154t46 -84q44 -37 127 -47q9 -1 108.5 -4.5t126.5 -3.5q78 0 130 4t94 16.5t65.5 31t39 52.5t20.5 75.5t5 104.5q0 85 -8 127.5t-31 77.5q-31 49 -95.5 65.5t-225.5 16.5zM420 1386h188q4 -92 42 -121.5t149 -29.5q113 0 150.5 29.5t41.5 121.5h187
q-10 -91 -30.5 -146t-64.5 -89t-109.5 -46.5t-172.5 -12.5q-108 0 -174 12.5t-111 46.5t-65.5 89t-30.5 146z" />
    <glyph glyph-name="Gdotaccent" unicode="&#x120;" horiz-adv-x="2050" 
d="M860 1520v204h340v-204h-340zM987 731h916v-145q0 -185 -13.5 -273.5t-50.5 -156.5q-59 -106 -215 -146q-55 -13 -173.5 -17.5t-428.5 -4.5q-274 0 -417 10t-206 35q-98 37 -151.5 101t-75.5 173q-22 107 -22 363q0 270 22 384.5t88 186.5q86 93 246 113q169 24 674 24
q299 0 431 -26.5t197 -100.5q88 -98 88 -323h-309q-2 65 -12 95.5t-39 53.5q-39 32 -113.5 41.5t-275.5 9.5q-261 0 -375 -5t-167 -19t-81 -47q-32 -37 -44.5 -114.5t-12.5 -237.5q0 -199 15.5 -285t58.5 -123q45 -40 138.5 -52t369.5 -12q196 0 281.5 4.5t127.5 16.5t72 41
q65 62 65 203v26h-608v207z" />
    <glyph glyph-name="gdotaccent" unicode="&#x121;" horiz-adv-x="1597" 
d="M1442 961v-867q0 -222 -35.5 -320t-136.5 -155q-72 -40 -197 -57t-346 -17q-305 0 -422 64q-73 40 -113 112.5t-40 165.5v9h274v-9q3 -82 82 -116q68 -29 268 -29q72 0 120.5 2t93 9t71.5 17t50 30t34.5 43.5t20 62.5t10.5 82t2 106v86q-32 -67 -74 -104
q-95 -82 -373 -82q-129 0 -218.5 8.5t-160.5 31t-113 56.5t-70 91.5t-38 129.5t-10 176q0 106 9.5 178t37 129.5t69.5 91t114 55.5t162.5 30t223.5 8q160 0 249 -20t130 -66q36 -41 62 -127v195h264zM807 772q-180 0 -256.5 -14t-108.5 -53q-28 -31 -39.5 -79.5
t-11.5 -131.5q0 -99 14 -154t46 -84q44 -37 127 -47q9 -1 108.5 -4.5t126.5 -3.5q78 0 130 4t94 16.5t65.5 31t39 52.5t20.5 75.5t5 104.5q0 85 -8 127.5t-31 77.5q-31 49 -95.5 65.5t-225.5 16.5zM653 1139v184h287v-184h-287z" />
    <glyph glyph-name="Gcommaaccent" unicode="&#x122;" horiz-adv-x="2050" 
d="M987 731h916v-145q0 -156 -8 -236.5t-29 -136.5q-41 -113 -134 -164t-270 -57q-126 -4 -518 -4q-282 0 -406 15.5t-204 59.5q-141 77 -168 277q-16 117 -16 330q0 270 22 384.5t88 186.5q44 47 92 72t152 40.5t245 20t402 4.5q322 0 456.5 -26t200.5 -101q88 -98 88 -323
h-309q-2 66 -12 97t-39 52q-41 32 -115 41.5t-284 9.5q-167 0 -261 -2t-168.5 -6.5t-109.5 -16.5t-56 -27.5t-36 -43.5q-22 -36 -30.5 -125.5t-8.5 -267.5q0 -195 27.5 -271.5t109.5 -107.5q76 -27 469 -24q214 2 259.5 3t80.5 7q95 15 138.5 75t43.5 177v26h-608v207z
M885 -109h278v-188q0 -66 -8.5 -98t-32.5 -56q-31 -31 -77 -43t-134 -12h-28v113h18q40 0 63 19.5t23 54.5q0 10 -2 16h-100v194z" />
    <glyph glyph-name="gcommaaccent" unicode="&#x123;" horiz-adv-x="1597" 
d="M1442 961v-867q0 -222 -35.5 -320t-136.5 -155q-72 -40 -197 -57t-346 -17q-305 0 -422 64q-73 40 -113 112.5t-40 165.5v9h274v-9q3 -82 82 -116q68 -29 268 -29q72 0 120.5 2t93 9t71.5 17t50 30t34.5 43.5t20 62.5t10.5 82t2 106v86q-32 -67 -74 -104
q-95 -82 -373 -82q-129 0 -218.5 8.5t-160.5 31t-113 56.5t-70 91.5t-38 129.5t-10 176q0 106 9.5 178t37 129.5t69.5 91t114 55.5t162.5 30t223.5 8q160 0 249 -20t130 -66q36 -41 62 -127v195h264zM807 772q-180 0 -256.5 -14t-108.5 -53q-28 -31 -39.5 -79.5
t-11.5 -131.5q0 -99 14 -154t46 -84q44 -37 127 -47q9 -1 108.5 -4.5t126.5 -3.5q78 0 130 4t94 16.5t65.5 31t39 52.5t20.5 75.5t5 104.5q0 85 -8 127.5t-31 77.5q-31 49 -95.5 65.5t-225.5 16.5zM918 1075h-261v178q0 71 12 104.5t46 61.5q28 22 71 29.5t138 7.5v-108h-15
q-40 0 -62 -19.5t-22 -54.5l2 -14h91v-185z" />
    <glyph glyph-name="Hcircumflex" unicode="&#x124;" horiz-adv-x="2074" 
d="M182 0v1366h316v-543h1077v543h315v-1366h-315v569h-1077v-569h-316zM1036 1806l453 -213l-53 -112l-400 106l-397 -106l-55 112z" />
    <glyph glyph-name="Hbar" unicode="&#x126;" horiz-adv-x="2074" 
d="M182 985h-174v199h174v182h316v-190h1079v190h315v-182h174v-199h-174v-985h-315v537h-1079v-537h-316v985zM498 993v-207h1079v207h-1079z" />
    <glyph glyph-name="hbar" unicode="&#x127;" horiz-adv-x="1556" 
d="M156 0v1098h-156v145h156v127h270v-127h334v-145h-334v-320q30 81 80 123.5t136 61t235 18.5q295 0 409.5 -94t114.5 -336v-551h-271v518q0 87 -11 127t-42 68q-63 55 -268 55q-219 0 -301 -57.5t-82 -210.5v-500h-270z" />
    <glyph glyph-name="Imacron" unicode="&#x12a;" horiz-adv-x="681" 
d="M10 1712h664v-182h-664v182zM184 0v1366h316v-1366h-316z" />
    <glyph glyph-name="imacron" unicode="&#x12b;" horiz-adv-x="581" 
d="M6 1311h572v-162h-572v162zM156 0v961h270v-961h-270z" />
    <glyph glyph-name="ibreve" unicode="&#x12d;" horiz-adv-x="581" 
d="M-39 1386h186q4 -92 34 -121.5t118 -29.5t116.5 29.5t33.5 121.5h186q-7 -74 -20.5 -122.5t-36 -83.5t-61 -53.5t-90 -26.5t-128.5 -8q-186 0 -253.5 58.5t-84.5 235.5zM156 0v961h270v-961h-270z" />
    <glyph glyph-name="Iogonek" unicode="&#x12e;" horiz-adv-x="681" 
d="M494 1366v-1368q-90 -45 -143.5 -99.5t-53.5 -103.5q0 -40 36 -67t91 -27q35 0 98 14v-147q-64 -19 -121 -19q-124 0 -206 64t-82 160q0 130 184 227h-119v1366h316z" />
    <glyph glyph-name="iogonek" unicode="&#x12f;" horiz-adv-x="581" 
d="M426 961v-963q-92 -57 -130 -99t-38 -85q0 -38 33 -62t84 -24q36 0 80 16v-133q-56 -19 -107 -19q-111 0 -184.5 57.5t-73.5 145.5q0 60 38 107.5t124 97.5h-96v961h270zM156 1145v225h270v-225h-270z" />
    <glyph glyph-name="Idotaccent" unicode="&#x130;" horiz-adv-x="681" 
d="M170 0v1366h315v-1366h-315zM158 1520v204h340v-204h-340z" />
    <glyph glyph-name="dotlessi" unicode="&#x131;" horiz-adv-x="581" 
d="M156 0v961h270v-961h-270z" />
    <glyph glyph-name="IJ" unicode="&#x132;" horiz-adv-x="2252" 
d="M182 0v1366h316v-1366h-316zM1759 1366h316v-778q0 -216 -27 -323t-96 -173q-84 -78 -271 -96q-90 -8 -313 -8q-262 0 -381.5 26t-185.5 97q-82 88 -82 315v123h301v-66q0 -86 12.5 -128.5t44.5 -67.5q57 -47 307 -47q155 0 229 14.5t105 50.5q25 31 33 80.5t8 173.5v807
z" />
    <glyph glyph-name="ij" unicode="&#x133;" horiz-adv-x="1193" 
d="M156 0v961h270v-961h-270zM156 1145v225h270v-225h-270zM600 -352v186q27 -4 51 -4q32 0 59.5 12.5t39.5 32.5q18 37 18 129v957h270v-928q0 -135 -5.5 -180t-26.5 -86q-28 -59 -105.5 -91t-191.5 -32q-60 0 -109 4zM768 1145v225h270v-225h-270z" />
    <glyph glyph-name="Kcommaaccent" unicode="&#x136;" horiz-adv-x="1943" 
d="M182 0v1366h316v-545h229l696 545h453l-868 -672l936 -694h-474l-749 569h-223v-569h-316zM778 -109h279v-188q0 -67 -8 -98t-33 -56q-31 -31 -77 -43t-134 -12h-29v113h19q41 0 63.5 19.5t22.5 56.5q0 8 -2 14h-101v194z" />
    <glyph glyph-name="kcommaaccent" unicode="&#x137;" horiz-adv-x="1394" 
d="M156 0v1370h270v-756h84l444 347h381l-579 -447l651 -514h-383l-506 416h-92v-416h-270zM547 -109h260v-178q0 -64 -8 -95t-31 -54q-56 -53 -201 -53h-28v108h16q40 0 62 19.5t22 54.5l-2 14h-90v184z" />
    <glyph glyph-name="kgreenlandic" unicode="&#x138;" horiz-adv-x="1394" 
d="M156 0v961h270v-347h84l444 347h381l-579 -447l651 -514h-383l-506 416h-92v-416h-270z" />
    <glyph glyph-name="Lacute" unicode="&#x139;" horiz-adv-x="1536" 
d="M182 0v1366h316v-1110h997v-256h-1313zM201 1481l-49 125l534 206l72 -210z" />
    <glyph glyph-name="lacute" unicode="&#x13a;" horiz-adv-x="581" 
d="M156 0v1370h270v-1370h-270zM156 1481l-39 114l426 220l67 -183z" />
    <glyph glyph-name="Lcommaaccent" unicode="&#x13b;" horiz-adv-x="1536" 
d="M182 0v1366h316v-1110h997v-256h-1313zM657 -109h279v-188q0 -67 -8 -98t-33 -56q-31 -31 -77 -43t-134 -12h-29v113h19q41 0 63.5 19.5t22.5 56.5q0 8 -2 14h-101v194z" />
    <glyph glyph-name="lcommaaccent" unicode="&#x13c;" horiz-adv-x="581" 
d="M143 0v1370h271v-1370h-271zM154 -109h260v-178q0 -64 -8 -95t-31 -54q-29 -29 -75 -41t-126 -12h-29v108h17q40 0 62 19.5t22 54.5l-2 14h-90v184z" />
    <glyph glyph-name="Lcaron" unicode="&#x13d;" horiz-adv-x="1536" 
d="M182 0v1366h316v-1110h997v-256h-1313zM741 1366h279v-190q0 -100 -21 -138q-47 -86 -208 -86h-52v115h19q41 0 63.5 21t22.5 59q0 14 -2 22h-101v197z" />
    <glyph glyph-name="lcaron" unicode="&#x13e;" horiz-adv-x="763" 
d="M156 0v1370h270v-1370h-270zM528 1370h260v-178q0 -73 -9.5 -107t-37.5 -59q-28 -26 -76.5 -36.5t-142.5 -10.5v108h15q44 0 67 23q27 31 17 51v2v23h-93v184z" />
    <glyph glyph-name="Ldot" unicode="&#x13f;" horiz-adv-x="1536" 
d="M182 0v1366h316v-1110h997v-256h-1313zM1026 618h-205v340h205v-340z" />
    <glyph glyph-name="ldot" unicode="&#x140;" horiz-adv-x="786" 
d="M156 0v1370h270v-1370h-270zM772 516h-205v340h205v-340z" />
    <glyph glyph-name="Lslash" unicode="&#x141;" horiz-adv-x="1536" 
d="M8 356v209l174 109v692h316v-547l481 289v-209l-481 -289v-354h997v-256h-1313v465z" />
    <glyph glyph-name="lslash" unicode="&#x142;" horiz-adv-x="610" 
d="M606 799l-166 -107v-692h-270v580l-166 -107v170l166 107v620h270v-508l166 107v-170z" />
    <glyph glyph-name="Nacute" unicode="&#x143;" horiz-adv-x="2174" 
d="M942 1481l-49 125l534 206l72 -210zM182 0v1366h490l1026 -1137l-6 1137h301v-1366h-492l-1020 1130l6 -1130h-305z" />
    <glyph glyph-name="nacute" unicode="&#x144;" horiz-adv-x="1556" 
d="M156 0v961h264v-209q31 94 82.5 143t139.5 69.5t245 20.5q170 0 270 -28.5t160 -94.5q46 -53 65 -123.5t19 -189.5v-549h-271v537q0 56 -9.5 94t-30.5 65t-59.5 42t-92 21.5t-133.5 6.5q-212 0 -295.5 -62t-83.5 -219v-485h-270zM637 1098l-39 114l436 215l68 -184z" />
    <glyph glyph-name="Ncommaaccent" unicode="&#x145;" horiz-adv-x="2174" 
d="M936 -109h278v-188q0 -67 -8 -98.5t-32 -55.5q-31 -31 -77 -43t-134 -12h-27v113h16q41 0 63.5 19.5t22.5 56.5q0 8 -2 14h-100v194zM182 0v1366h490l1026 -1137l-6 1137h301v-1366h-492l-1020 1130l6 -1130h-305z" />
    <glyph glyph-name="ncommaaccent" unicode="&#x146;" horiz-adv-x="1556" 
d="M156 0v961h264v-209q31 94 82.5 143t139.5 69.5t245 20.5q170 0 270 -28.5t160 -94.5q46 -53 65 -123.5t19 -189.5v-549h-271v537q0 56 -9.5 94t-30.5 65t-59.5 42t-92 21.5t-133.5 6.5q-212 0 -295.5 -62t-83.5 -219v-485h-270zM653 -109h260v-178q0 -64 -8 -95t-31 -54
q-29 -29 -75.5 -41t-126.5 -12h-25v108h15q40 0 61.5 19.5t21.5 54.5l-2 14h-90v184z" />
    <glyph glyph-name="Ncaron" unicode="&#x147;" horiz-adv-x="2174" 
d="M1110 1481l-453 213l54 112l399 -106l397 106l54 -112zM182 0v1366h490l1026 -1137l-6 1137h301v-1366h-492l-1020 1130l6 -1130h-305z" />
    <glyph glyph-name="ncaron" unicode="&#x148;" horiz-adv-x="1556" 
d="M156 0v961h264v-209q31 94 82.5 143t139.5 69.5t245 20.5q170 0 270 -28.5t160 -94.5q46 -53 65 -123.5t19 -189.5v-549h-271v537q0 56 -9.5 94t-30.5 65t-59.5 42t-92 21.5t-133.5 6.5q-212 0 -295.5 -62t-83.5 -219v-485h-270zM766 1096l-379 221l41 106l338 -131
l338 131l43 -106z" />
    <glyph glyph-name="napostrophe" unicode="&#x149;" horiz-adv-x="1744" 
d="M344 0v961h264v-209q31 94 82.5 143t139.5 69.5t245 20.5q170 0 270 -28.5t160 -94.5q46 -51 65 -122t19 -191v-549h-270v537q0 70 -14 113t-52.5 69.5t-99 36.5t-160.5 10q-212 0 -295.5 -62t-83.5 -219v-485h-270zM-2 1290h260v-178q0 -97 -20 -133q-47 -80 -199 -80
h-49v109h16q44 0 66 22q24 27 16 51v2v23h-90v184z" />
    <glyph glyph-name="Eng" unicode="&#x14a;" horiz-adv-x="2105" 
d="M182 0v1366h316v-231q29 62 60.5 96.5t82.5 60.5q145 80 567 80q264 0 419 -49.5t225.5 -157.5t70.5 -291v-843q0 -129 -9 -192t-34 -109q-32 -62 -121.5 -97.5t-212.5 -35.5q-44 0 -135 6v221q35 -6 51 -6q82 0 114 41.5t32 148.5v864q0 94 -26 138.5t-95 70.5
q-113 41 -389 41q-189 0 -294 -18t-194 -64q-63 -32 -87.5 -84t-24.5 -151v-805h-316z" />
    <glyph glyph-name="eng" unicode="&#x14b;" horiz-adv-x="1558" 
d="M156 0v961h264v-209q32 92 83.5 139.5t141 67.5t250.5 20q165 0 265 -29t159 -94q46 -51 65 -120.5t19 -186.5v-539q0 -111 -7.5 -164.5t-29.5 -91.5q-28 -54 -105.5 -84t-185.5 -30q-41 0 -117 6v188q27 -6 46 -6q70 0 97 35.5t27 128.5v545q0 70 -14 112t-52 68.5
t-98.5 36.5t-160.5 10q-210 0 -293.5 -62t-83.5 -217v-485h-270z" />
    <glyph glyph-name="Omacron" unicode="&#x14c;" horiz-adv-x="2121" 
d="M618 1712h885v-182h-885v182zM1149 1380q250 0 381.5 -11t206 -39t127.5 -85q83 -91 100 -289q8 -84 8 -288q0 -256 -29.5 -376.5t-107.5 -189.5q-57 -50 -139 -75.5t-211 -32.5q-132 -8 -504 -8q-315 0 -437.5 14t-209.5 61q-141 77 -168 279q-16 120 -16 387
q0 239 27.5 353.5t101.5 179.5q55 49 134.5 74t211.5 36q117 10 524 10zM1063 1122h-159.5t-125 -5t-101.5 -7.5t-73.5 -18.5t-56.5 -25.5t-34.5 -42t-25 -54.5t-10 -75.5t-6.5 -93v-118.5q0 -200 19.5 -281t76.5 -110q57 -31 148.5 -39t384.5 -8q263 0 358.5 14.5
t136.5 60.5q35 38 48.5 118t13.5 253q0 205 -14 269q-18 87 -83 120q-69 36 -266 41q-68 2 -231 2z" />
    <glyph glyph-name="omacron" unicode="&#x14d;" horiz-adv-x="1562" 
d="M403 1311h758v-164h-758v164zM774 979q254 0 381.5 -25t194.5 -88q54 -51 74 -136.5t20 -266.5q0 -127 -23 -224t-63 -137q-57 -57 -144 -82q-56 -17 -183 -27.5t-267 -10.5q-143 0 -237.5 7t-171 29t-118.5 54.5t-70 92t-37 133t-9 185.5q0 163 23 251t79 138
q55 49 146 72q54 14 178 24.5t227 10.5zM821 774q-180 0 -259 -14.5t-113 -54.5q-29 -32 -41.5 -84.5t-12.5 -143.5q0 -65 5 -108t20.5 -77.5t39 -53.5t66 -31.5t94.5 -16.5t132 -4q267 0 331 37q47 28 66.5 83.5t19.5 164.5q0 68 -5 112.5t-20 80.5t-37.5 55.5t-64 33
t-92.5 17.5t-129 4z" />
    <glyph glyph-name="Ohungarumlaut" unicode="&#x150;" horiz-adv-x="2121" 
d="M1149 1380q250 0 381.5 -11t206 -39t127.5 -85q83 -91 100 -289q8 -84 8 -288q0 -256 -29.5 -376.5t-107.5 -189.5q-57 -50 -139 -75.5t-211 -32.5q-132 -8 -504 -8q-315 0 -437.5 14t-209.5 61q-141 77 -168 279q-16 120 -16 387q0 239 27.5 353.5t101.5 179.5
q55 49 134.5 74t211.5 36q117 10 524 10zM1063 1122h-159.5t-125 -5t-101.5 -7.5t-73.5 -18.5t-56.5 -25.5t-34.5 -42t-25 -54.5t-10 -75.5t-6.5 -93v-118.5q0 -200 19.5 -281t76.5 -110q57 -31 148.5 -39t384.5 -8q263 0 358.5 14.5t136.5 60.5q35 38 48.5 118t13.5 253
q0 205 -14 269q-18 87 -83 120q-69 36 -266 41q-68 2 -231 2zM1260 1456l-82 113l403 280l125 -176zM745 1456l-81 113l403 280l127 -176z" />
    <glyph glyph-name="ohungarumlaut" unicode="&#x151;" horiz-adv-x="1562" 
d="M774 979q254 0 381.5 -25t194.5 -88q54 -51 74 -136.5t20 -266.5q0 -127 -23 -224t-63 -137q-57 -57 -144 -82q-56 -17 -183 -27.5t-267 -10.5q-143 0 -237.5 7t-171 29t-118.5 54.5t-70 92t-37 133t-9 185.5q0 163 23 251t79 138q55 49 146 72q54 14 178 24.5t227 10.5z
M821 774q-180 0 -259 -14.5t-113 -54.5q-29 -32 -41.5 -84.5t-12.5 -143.5q0 -65 5 -108t20.5 -77.5t39 -53.5t66 -31.5t94.5 -16.5t132 -4q267 0 331 37q47 28 66.5 83.5t19.5 164.5q0 68 -5 112.5t-20 80.5t-37.5 55.5t-64 33t-92.5 17.5t-129 4zM911 1092l-73 94l313 262
l111 -145zM518 1092l-74 94l314 262l110 -145z" />
    <glyph glyph-name="OE" unicode="&#x152;" horiz-adv-x="3178" 
d="M1626 1366h1423v-240h-1128v-323h1069v-215h-1069v-348h1133v-240h-1428v162q-46 -88 -135 -124t-272 -42q-37 -2 -295 -2q-238 0 -361.5 13.5t-197.5 47.5q-90 43 -134.5 107t-62.5 177t-18 323q0 288 26.5 409.5t104.5 188.5q58 51 126.5 73.5t192 30.5t387.5 8
q235 0 350 -12t172 -43q46 -26 73 -55t44 -70v174zM1055 1118q-296 0 -389 -10.5t-136 -48.5q-41 -35 -56 -109.5t-15 -240.5q0 -155 7.5 -233.5t27 -120t59.5 -64.5q46 -26 142.5 -36.5t346.5 -14.5q68 -2 129 -2q175 0 267.5 18t130.5 61q34 38 45.5 110.5t11.5 244.5
q0 186 -15.5 267t-58.5 118q-41 37 -139.5 49t-357.5 12z" />
    <glyph glyph-name="oe" unicode="&#x153;" horiz-adv-x="2537" 
d="M2150 295h269q0 -170 -140 -248q-66 -37 -162 -51t-284 -14q-144 0 -234 7.5t-153.5 27t-96.5 50.5t-55 83q-43 -96 -139.5 -132t-310.5 -36q-262 0 -377 13.5t-184 51.5q-94 53 -128 148t-34 307q0 156 23 237.5t83 132.5q66 58 186 82.5t339 24.5q193 0 298 -14.5
t160.5 -49.5t83.5 -102q41 95 153.5 130.5t373.5 35.5q251 0 368 -38t176 -138q31 -54 43.5 -122.5t12.5 -184.5v-70h-994q0 -70 9.5 -114t31 -76t64.5 -48t102 -23t152 -7q92 0 148.5 3.5t100 11t65 24t33.5 39t17 59.5zM825 774q-187 0 -269 -14.5t-114 -52.5
q-29 -34 -41 -85t-12 -139q0 -99 15 -155.5t49 -87.5q41 -38 133 -47q8 -1 113.5 -5t127.5 -4q121 0 182 11.5t95 40.5q65 56 65 231q0 100 -12.5 156.5t-52.5 92.5t-103 47t-176 11zM1425 586h723q0 69 -13.5 108.5t-55 64.5t-107 33.5t-178.5 8.5q-153 0 -229.5 -18.5
t-108 -63t-31.5 -133.5z" />
    <glyph glyph-name="Racute" unicode="&#x154;" horiz-adv-x="2013" 
d="M182 0v1366h1157q179 0 272.5 -24.5t149.5 -84.5q88 -98 88 -327q0 -197 -75 -281q-32 -38 -92 -58.5t-185 -35.5q94 -6 132.5 -12.5t70.5 -20.5q66 -32 96.5 -92.5t30.5 -159.5v-270h-318v205q0 47 -4 79.5t-15.5 58.5t-29 41t-47 25t-67 13.5t-91.5 3.5h-759v-426h-314
zM496 678h749q172 0 229.5 41t57.5 164q0 74 -10.5 115.5t-43 68t-84.5 35t-143 8.5h-755v-432zM805 1481l-49 125l534 206l72 -210z" />
    <glyph glyph-name="racute" unicode="&#x155;" horiz-adv-x="1269" 
d="M156 0v961h260v-203q32 77 55.5 110.5t60.5 55.5q99 55 289 55q289 0 365 -135q45 -78 45 -240q0 -34 -2 -61h-256q0 101 -21 147q-39 74 -213 74q-170 0 -241.5 -62t-71.5 -208v-494h-270zM518 1098l-39 114l436 215l68 -184z" />
    <glyph glyph-name="Rcommaaccent" unicode="&#x156;" horiz-adv-x="2013" 
d="M182 0v1366h1157q179 0 272.5 -24.5t149.5 -84.5q88 -98 88 -327q0 -197 -75 -281q-32 -38 -92 -58.5t-185 -35.5q94 -6 132.5 -12.5t70.5 -20.5q66 -32 96.5 -92.5t30.5 -159.5v-270h-318v205q0 47 -4 79.5t-15.5 58.5t-29 41t-47 25t-67 13.5t-91.5 3.5h-759v-426h-314
zM496 678h749q172 0 229.5 41t57.5 164q0 74 -10.5 115.5t-43 68t-84.5 35t-143 8.5h-755v-432zM864 -109h279v-188q0 -67 -8 -98t-33 -56q-31 -31 -77 -43t-134 -12h-29v113h19q41 0 63.5 19.5t22.5 56.5q0 8 -2 14h-101v194z" />
    <glyph glyph-name="rcommaaccent" unicode="&#x157;" horiz-adv-x="1269" 
d="M145 0v961h261v-203q32 77 55.5 110.5t60.5 55.5q99 55 289 55q288 0 365 -135q45 -78 45 -240q0 -34 -2 -61h-256q0 101 -21 147q-39 74 -213 74q-170 0 -241.5 -62t-71.5 -208v-494h-271zM154 -109h260v-178q0 -64 -8 -95t-31 -54q-29 -29 -75 -41t-128 -12h-27v108h17
q40 0 62 19.5t22 54.5l-2 14h-90v184z" />
    <glyph glyph-name="Rcaron" unicode="&#x158;" horiz-adv-x="2013" 
d="M182 0v1366h1157q179 0 272.5 -24.5t149.5 -84.5q88 -98 88 -327q0 -197 -75 -281q-32 -38 -92 -58.5t-185 -35.5q94 -6 132.5 -12.5t70.5 -20.5q66 -32 96.5 -92.5t30.5 -159.5v-270h-318v205q0 47 -4 79.5t-15.5 58.5t-29 41t-47 25t-67 13.5t-91.5 3.5h-759v-426h-314
zM496 678h749q172 0 229.5 41t57.5 164q0 74 -10.5 115.5t-43 68t-84.5 35t-143 8.5h-755v-432zM975 1481l-453 213l53 112l400 -106l397 106l55 -112z" />
    <glyph glyph-name="rcaron" unicode="&#x159;" horiz-adv-x="1269" 
d="M156 0v961h260v-203q32 77 55.5 110.5t60.5 55.5q99 55 289 55q289 0 365 -135q45 -78 45 -240q0 -34 -2 -61h-256q0 101 -21 147q-39 74 -213 74q-170 0 -241.5 -62t-71.5 -208v-494h-270zM657 1096l-378 221l40 106l338 -131l338 131l41 -106z" />
    <glyph glyph-name="Sacute" unicode="&#x15a;" horiz-adv-x="1931" 
d="M150 432h309v-14q0 -126 55 -158q69 -41 356 -41q221 0 422 25q60 8 92.5 19.5t51.5 33.5q41 50 41 117q0 60 -29.5 91t-101.5 48q-38 9 -92.5 10.5t-340.5 3.5h-194q-210 0 -315 21t-164 74q-95 86 -95 264q0 114 27 202.5t74 131.5q70 64 242 91t511 27
q268 0 394.5 -15.5t212.5 -59.5q72 -37 103 -113.5t34 -228.5h-307q-3 113 -64 141q-91 43 -340 43q-408 0 -500 -47q-73 -34 -73 -133q0 -87 57 -121q35 -20 106.5 -27.5t231.5 -7.5h233q308 0 432.5 -23t188.5 -92q84 -87 84 -284q0 -213 -98 -308q-68 -65 -225 -89.5
t-502 -24.5q-369 0 -517.5 21t-213.5 83q-89 83 -89 270q0 30 3 70zM784 1481l-49 125l535 206l71 -210z" />
    <glyph glyph-name="sacute" unicode="&#x15b;" horiz-adv-x="1505" 
d="M1071 692v8q0 41 -28.5 61.5t-99 29t-212.5 8.5q-130 0 -200.5 -10.5t-100 -35t-29.5 -69.5q0 -43 24 -62t87.5 -26.5t204.5 -7.5h149q188 0 277 -12t149 -46q103 -57 103 -229q0 -132 -50 -198.5t-171 -94.5q-118 -26 -484 -26q-249 0 -355.5 21.5t-160.5 82.5
q-35 38 -49 86t-14 125v10h282v-10q0 -31 5.5 -51t22.5 -36t42 -24.5t72 -14.5t103.5 -7.5t145.5 -1.5q139 0 208.5 10t97.5 34.5t28 72.5q0 49 -24.5 72.5t-86.5 32.5t-186 7q-173 -4 -377 4q-178 12 -249.5 73.5t-71.5 201.5q0 125 49 189.5t164 90.5q139 29 416 29
q223 0 327.5 -13t169.5 -48q103 -56 103 -220v-6h-281zM608 1098l-39 114l437 215l67 -184z" />
    <glyph glyph-name="Scircumflex" unicode="&#x15c;" horiz-adv-x="1931" 
d="M150 432h309v-14q0 -126 55 -158q69 -41 356 -41q221 0 422 25q60 8 92.5 19.5t51.5 33.5q41 50 41 117q0 60 -29.5 91t-101.5 48q-38 9 -92.5 10.5t-340.5 3.5h-194q-210 0 -315 21t-164 74q-95 86 -95 264q0 114 27 202.5t74 131.5q70 64 242 91t511 27
q268 0 394.5 -15.5t212.5 -59.5q72 -37 103 -113.5t34 -228.5h-307q-3 113 -64 141q-91 43 -340 43q-408 0 -500 -47q-73 -34 -73 -133q0 -87 57 -121q35 -20 106.5 -27.5t231.5 -7.5h233q308 0 432.5 -23t188.5 -92q84 -87 84 -284q0 -213 -98 -308q-68 -65 -225 -89.5
t-502 -24.5q-369 0 -517.5 21t-213.5 83q-89 83 -89 270q0 30 3 70zM948 1806l453 -213l-53 -112l-400 106l-397 -106l-55 112z" />
    <glyph glyph-name="scircumflex" unicode="&#x15d;" horiz-adv-x="1505" 
d="M1071 692v8q0 41 -28.5 61.5t-99 29t-212.5 8.5q-130 0 -200.5 -10.5t-100 -35t-29.5 -69.5q0 -43 24 -62t87.5 -26.5t204.5 -7.5h149q188 0 277 -12t149 -46q103 -57 103 -229q0 -132 -50 -198.5t-171 -94.5q-118 -26 -484 -26q-249 0 -355.5 21.5t-160.5 82.5
q-35 38 -49 86t-14 125v10h282v-10q0 -31 5.5 -51t22.5 -36t42 -24.5t72 -14.5t103.5 -7.5t145.5 -1.5q139 0 208.5 10t97.5 34.5t28 72.5q0 49 -24.5 72.5t-86.5 32.5t-186 7q-173 -4 -377 4q-178 12 -249.5 73.5t-71.5 201.5q0 125 49 189.5t164 90.5q139 29 416 29
q223 0 327.5 -13t169.5 -48q103 -56 103 -220v-6h-281zM754 1423l379 -223l-41 -104l-338 129l-338 -129l-43 104z" />
    <glyph glyph-name="Scedilla" unicode="&#x15e;" horiz-adv-x="1931" 
d="M150 432h309v-14q0 -126 55 -158q69 -41 356 -41q221 0 422 25q60 8 92.5 19.5t51.5 33.5q41 50 41 117q0 60 -29.5 91t-101.5 48q-38 9 -92.5 10.5t-340.5 3.5h-194q-210 0 -315 21t-164 74q-95 86 -95 264q0 114 27 202.5t74 131.5q70 64 242 91t511 27
q268 0 394.5 -15.5t212.5 -59.5q72 -37 103 -113.5t34 -228.5h-307q-3 113 -64 141q-91 43 -340 43q-408 0 -500 -47q-73 -34 -73 -133q0 -87 57 -121q35 -20 106.5 -27.5t231.5 -7.5h233q308 0 432.5 -23t188.5 -92q84 -87 84 -284q0 -213 -98 -308q-68 -65 -225 -89.5
t-502 -24.5q-369 0 -517.5 21t-213.5 83q-89 83 -89 270q0 30 3 70zM881 -438l-119 82l209 272l176 -129z" />
    <glyph glyph-name="scedilla" unicode="&#x15f;" horiz-adv-x="1505" 
d="M1071 692v8q0 41 -28.5 61.5t-99 29t-212.5 8.5q-130 0 -200.5 -10.5t-100 -35t-29.5 -69.5q0 -43 24 -62t87.5 -26.5t204.5 -7.5h149q188 0 277 -12t149 -46q103 -57 103 -229q0 -132 -50 -198.5t-171 -94.5q-118 -26 -484 -26q-249 0 -355.5 21.5t-160.5 82.5
q-35 38 -49 86t-14 125v10h282v-10q0 -31 5.5 -51t22.5 -36t42 -24.5t72 -14.5t103.5 -7.5t145.5 -1.5q139 0 208.5 10t97.5 34.5t28 72.5q0 49 -24.5 72.5t-86.5 32.5t-186 7q-173 -4 -377 4q-178 12 -249.5 73.5t-71.5 201.5q0 125 49 189.5t164 90.5q139 29 416 29
q223 0 327.5 -13t169.5 -48q103 -56 103 -220v-6h-281zM559 -346l207 266l164 -127l-266 -219z" />
    <glyph glyph-name="Scaron" unicode="&#x160;" horiz-adv-x="1931" 
d="M150 432h309v-14q0 -126 55 -158q69 -41 356 -41q221 0 422 25q60 8 92.5 19.5t51.5 33.5q41 50 41 117q0 60 -29.5 91t-101.5 48q-38 9 -92.5 10.5t-340.5 3.5h-194q-210 0 -315 21t-164 74q-95 86 -95 264q0 114 27 202.5t74 131.5q70 64 242 91t511 27
q268 0 394.5 -15.5t212.5 -59.5q72 -37 103 -113.5t34 -228.5h-307q-3 113 -64 141q-91 43 -340 43q-408 0 -500 -47q-73 -34 -73 -133q0 -87 57 -121q35 -20 106.5 -27.5t231.5 -7.5h233q308 0 432.5 -23t188.5 -92q84 -87 84 -284q0 -213 -98 -308q-68 -65 -225 -89.5
t-502 -24.5q-369 0 -517.5 21t-213.5 83q-89 83 -89 270q0 30 3 70zM948 1481l-452 213l55 112l397 -106l400 106l53 -112z" />
    <glyph glyph-name="scaron" unicode="&#x161;" horiz-adv-x="1505" 
d="M1071 692v8q0 41 -28.5 61.5t-99 29t-212.5 8.5q-130 0 -200.5 -10.5t-100 -35t-29.5 -69.5q0 -43 24 -62t87.5 -26.5t204.5 -7.5h149q188 0 277 -12t149 -46q103 -57 103 -229q0 -132 -50 -198.5t-171 -94.5q-118 -26 -484 -26q-249 0 -355.5 21.5t-160.5 82.5
q-35 38 -49 86t-14 125v10h282v-10q0 -31 5.5 -51t22.5 -36t42 -24.5t72 -14.5t103.5 -7.5t145.5 -1.5q139 0 208.5 10t97.5 34.5t28 72.5q0 49 -24.5 72.5t-86.5 32.5t-186 7q-173 -4 -377 4q-178 12 -249.5 73.5t-71.5 201.5q0 125 49 189.5t164 90.5q139 29 416 29
q223 0 327.5 -13t169.5 -48q103 -56 103 -220v-6h-281zM754 1096l-381 221l43 106l338 -131l338 131l41 -106z" />
    <glyph glyph-name="Tcommaaccent" unicode="&#x162;" horiz-adv-x="1654" 
d="M670 0v1110h-643v256h1599v-256h-641v-1110h-315zM686 -109h279v-188q0 -66 -8.5 -98t-32.5 -56q-31 -31 -77 -43t-134 -12h-29v113h18q40 0 63 19.5t23 54.5q0 10 -2 16h-100v194z" />
    <glyph glyph-name="tcommaaccent" unicode="&#x163;" horiz-adv-x="1232" 
d="M1139 414v-62q0 -132 -15.5 -191.5t-60.5 -99.5q-51 -43 -132.5 -61t-225.5 -18q-190 0 -287.5 32.5t-141.5 110.5q-36 65 -36 199l4 444h-201v193h203v223h274v-223h610v-193h-612l-4 -389q0 -100 16 -127q33 -70 197 -70q124 0 160.5 36t36.5 159v37h215zM518 -109h258
v-178q0 -65 -8 -95.5t-31 -53.5q-29 -29 -74.5 -41t-125.5 -12h-27v108h16q40 0 62 19.5t22 54.5l-2 14h-90v184z" />
    <glyph glyph-name="Tcaron" unicode="&#x164;" horiz-adv-x="1654" 
d="M670 0v1110h-643v256h1599v-256h-641v-1110h-315zM827 1481l-452 213l53 112l399 -106l398 106l53 -112z" />
    <glyph glyph-name="tcaron" unicode="&#x165;" horiz-adv-x="1232" 
d="M1139 414v-62q0 -132 -15.5 -191.5t-60.5 -99.5q-51 -43 -132.5 -61t-225.5 -18q-190 0 -287.5 32.5t-141.5 110.5q-36 65 -36 199l4 444h-201v193h203v223h274v-223h610v-193h-612l-4 -389q0 -89 12 -119q19 -42 64.5 -60t134.5 -18q126 0 162.5 35.5t36.5 159.5v37h215
zM772 1468h258v-178q0 -73 -9.5 -107t-37.5 -59q-50 -47 -192 -47h-27v109h16q44 0 66 22q11 12 15.5 27.5t0.5 24.5v2v22h-90v184z" />
    <glyph glyph-name="Tbar" unicode="&#x166;" horiz-adv-x="1654" 
d="M27 1366h1599v-256h-641v-281h436v-198h-436v-631h-315v631h-437v198h437v281h-643v256z" />
    <glyph glyph-name="tbar" unicode="&#x167;" horiz-adv-x="1232" 
d="M244 651v121h-201v189h203v223h274v-223h610v-189h-614v-121h506v-149h-506v-92q0 -1 -4 -25q-8 -38 6 -89.5t39 -74.5q39 -39 184 -39q104 0 140 35.5t39 142.5h219v-16q0 -127 -16 -185t-60 -98q-51 -43 -132.5 -61t-225.5 -18q-129 0 -206.5 12t-129.5 41
q-68 37 -101.5 105.5t-27.5 160.5q2 20 2 37v164h-181v149h183z" />
    <glyph glyph-name="utilde" unicode="&#x169;" horiz-adv-x="1556" 
d="M1401 961v-961h-264v209q-31 -94 -82 -143.5t-140 -70t-245 -20.5q-170 0 -270 28.5t-160 94.5q-46 53 -65 123.5t-19 190.5v549h270v-537q0 -71 13.5 -113.5t52 -69.5t98.5 -36.5t162 -9.5q212 0 295 61.5t83 218.5v486h271zM1018 1376l158 -51q-71 -205 -228 -205
q-70 0 -184 51q-85 37 -129 37q-67 0 -92 -86l-156 52q43 96 88 141q25 25 67 43t74 18q63 0 185 -53q70 -33 117 -33q37 0 63 23t37 63z" />
    <glyph glyph-name="Umacron" unicode="&#x16a;" horiz-adv-x="2041" 
d="M580 1712h884v-182h-884v182zM1554 1366h316v-860q0 -195 -37 -290t-135 -150q-87 -51 -220 -65.5t-497 -14.5q-355 0 -498.5 28t-218.5 113q-53 60 -71.5 148.5t-18.5 277.5v813h315v-715q0 -132 1.5 -163t9.5 -76q7 -46 23.5 -74t47.5 -49t91 -30.5t140.5 -14
t209.5 -4.5q323 0 401 20q117 29 135 156q4 25 6 215v735z" />
    <glyph glyph-name="umacron" unicode="&#x16b;" horiz-adv-x="1556" 
d="M399 1311h758v-164h-758v164zM1401 961v-961h-264v209q-31 -94 -82 -143.5t-140 -70t-245 -20.5q-170 0 -270 28.5t-160 94.5q-46 53 -65 123.5t-19 190.5v549h270v-537q0 -71 13.5 -113.5t52 -69.5t98.5 -36.5t162 -9.5q212 0 295 61.5t83 218.5v486h271z" />
    <glyph glyph-name="ubreve" unicode="&#x16d;" horiz-adv-x="1556" 
d="M1401 961v-961h-264v209q-31 -94 -82 -143.5t-140 -70t-245 -20.5q-170 0 -270 28.5t-160 94.5q-46 53 -65 123.5t-19 190.5v549h270v-537q0 -71 13.5 -113.5t52 -69.5t98.5 -36.5t162 -9.5q212 0 295 61.5t83 218.5v486h271zM416 1386h188q3 -90 41.5 -120.5
t147.5 -30.5q114 0 151 28.5t43 122.5h187q-10 -91 -30.5 -146t-64.5 -89t-109.5 -46.5t-172.5 -12.5q-108 0 -174 12.5t-111 46.5t-65.5 89t-30.5 146z" />
    <glyph glyph-name="Uring" unicode="&#x16e;" horiz-adv-x="2041" 
d="M1024 1829q140 0 217.5 -46.5t77.5 -131.5q0 -89 -79.5 -137t-225.5 -48q-130 0 -209.5 49.5t-79.5 129.5q0 85 81 134.5t218 49.5zM1026 1722q-74 0 -114 -20t-40 -57q0 -72 144 -72q155 0 155 74q0 75 -145 75zM1554 1366h316v-860q0 -195 -37 -290t-135 -150
q-87 -51 -220 -65.5t-497 -14.5q-355 0 -498.5 28t-218.5 113q-53 60 -71.5 148.5t-18.5 277.5v813h315v-715q0 -132 1.5 -163t9.5 -76q7 -46 23.5 -74t47.5 -49t91 -30.5t140.5 -14t209.5 -4.5q323 0 401 20q117 29 135 156q4 25 6 215v735z" />
    <glyph glyph-name="uring" unicode="&#x16f;" horiz-adv-x="1556" 
d="M1401 961v-961h-264v209q-31 -94 -82 -143.5t-140 -70t-245 -20.5q-170 0 -270 28.5t-160 94.5q-46 53 -65 123.5t-19 190.5v549h270v-537q0 -71 13.5 -113.5t52 -69.5t98.5 -36.5t162 -9.5q212 0 295 61.5t83 218.5v486h271zM780 1438q133 0 205 -44.5t72 -127.5
q0 -88 -74 -134.5t-213 -46.5q-124 0 -197 47.5t-73 127.5q0 83 74 130.5t206 47.5zM782 1337q-149 0 -149 -77q0 -74 131 -74q84 0 122 18t38 58q0 75 -142 75z" />
    <glyph glyph-name="Uhungarumlaut" unicode="&#x170;" horiz-adv-x="2041" 
d="M1214 1456l-81 113l403 280l125 -176zM700 1456l-82 113l404 280l127 -176zM1554 1366h316v-860q0 -195 -37 -290t-135 -150q-87 -51 -220 -65.5t-497 -14.5q-355 0 -498.5 28t-218.5 113q-53 60 -71.5 148.5t-18.5 277.5v813h315v-715q0 -132 1.5 -163t9.5 -76
q7 -46 23.5 -74t47.5 -49t91 -30.5t140.5 -14t209.5 -4.5q323 0 401 20q117 29 135 156q4 25 6 215v735z" />
    <glyph glyph-name="uhungarumlaut" unicode="&#x171;" horiz-adv-x="1556" 
d="M1401 961v-961h-264v209q-31 -94 -82 -143.5t-140 -70t-245 -20.5q-170 0 -270 28.5t-160 94.5q-46 53 -65 123.5t-19 190.5v549h270v-537q0 -71 13.5 -113.5t52 -69.5t98.5 -36.5t162 -9.5q212 0 295 61.5t83 218.5v486h271zM952 1079l-78 109l367 270l119 -168z
M504 1079l-80 109l369 270l116 -168z" />
    <glyph glyph-name="Uogonek" unicode="&#x172;" horiz-adv-x="2041" 
d="M1624 33l-57 -35q-181 -111 -181 -195q0 -43 38.5 -68.5t103.5 -25.5q38 0 100 15v-148q-60 -18 -125 -18q-131 0 -216 63t-85 160q0 64 38.5 112.5t127.5 98.5q-120 -6 -371 -6q-258 0 -386 10.5t-199 36.5q-77 30 -125.5 72.5t-75.5 107.5q-37 84 -37 340v813h315v-715
q0 -132 1.5 -163t9.5 -76q7 -46 23.5 -74t47.5 -49t91 -30.5t140.5 -14t209.5 -4.5q323 0 401 20q117 29 135 156q4 25 6 215v735h316v-860q0 -171 -25 -256.5t-94 -145.5q-51 -45 -127 -71z" />
    <glyph glyph-name="uogonek" unicode="&#x173;" horiz-adv-x="1556" 
d="M1401 961v-963q-100 -55 -142 -97t-42 -85q0 -38 33.5 -62t88.5 -24q36 0 91 14v-133q-58 -17 -111 -17q-120 0 -195 57t-75 146q0 59 39 107.5t126 95.5h-77v209q-31 -94 -82 -143.5t-140 -70t-245 -20.5q-170 0 -270 28.5t-160 94.5q-46 53 -65 123.5t-19 190.5v549
h270v-537q0 -71 13.5 -113.5t52 -69.5t98.5 -36.5t162 -9.5q212 0 295 61.5t83 218.5v486h271z" />
    <glyph glyph-name="Wcircumflex" unicode="&#x174;" horiz-adv-x="2897" 
d="M29 1366h325l465 -1110l443 1110h376l437 -1110l473 1110h323l-598 -1366h-415l-410 1073l-418 -1073h-414zM1450 1806l453 -213l-56 -112l-397 106l-399 -106l-54 112z" />
    <glyph glyph-name="Ycircumflex" unicode="&#x176;" horiz-adv-x="1880" 
d="M944 764l533 602h401l-778 -852v-514h-316v514l-784 852h408zM940 1806l453 -213l-56 -112l-397 106l-397 -106l-56 112z" />
    <glyph glyph-name="ycircumflex" unicode="&#x177;" horiz-adv-x="1345" 
d="M14 961h297l363 -775l358 775h297l-536 -1111q-46 -96 -71.5 -138t-59.5 -74q-90 -87 -297 -87q-31 0 -113 7v190q20 -2 43 -2q79 0 123.5 14.5t76.5 51t68 112.5l37 76h-113zM672 1423l381 -223l-43 -104l-338 129l-338 -129l-41 104z" />
    <glyph glyph-name="Ydieresis" unicode="&#x178;" horiz-adv-x="1880" 
d="M944 764l533 602h401l-778 -852v-514h-316v514l-784 852h408zM508 1522v200h330v-200h-330zM1042 1522v200h330v-200h-330z" />
    <glyph glyph-name="Zacute" unicode="&#x179;" horiz-adv-x="1814" 
d="M748 1481l-50 125l533 206l74 -210zM92 0v242l1159 884h-1120v240h1569v-242l-1168 -884h1186v-240h-1626z" />
    <glyph glyph-name="zacute" unicode="&#x17a;" horiz-adv-x="1308" 
d="M520 1098l-39 114l437 215l67 -184zM84 0v193l743 575h-702v193h1079v-211l-735 -560h750v-190h-1135z" />
    <glyph glyph-name="Zdotaccent" unicode="&#x17b;" horiz-adv-x="1814" 
d="M741 1520v204h340v-204h-340zM92 0v242l1159 884h-1120v240h1569v-242l-1168 -884h1186v-240h-1626z" />
    <glyph glyph-name="zdotaccent" unicode="&#x17c;" horiz-adv-x="1308" 
d="M514 1139v184h287v-184h-287zM84 0v193l743 575h-702v193h1079v-211l-735 -560h750v-190h-1135z" />
    <glyph glyph-name="Zcaron" unicode="&#x17d;" horiz-adv-x="1814" 
d="M911 1481l-452 213l55 112l397 -106l400 106l53 -112zM92 0v242l1159 884h-1120v240h1569v-242l-1168 -884h1186v-240h-1626z" />
    <glyph glyph-name="zcaron" unicode="&#x17e;" horiz-adv-x="1308" 
d="M657 1096l-378 221l40 106l338 -131l338 131l41 -106zM84 0v193l743 575h-702v193h1079v-211l-735 -560h750v-190h-1135z" />
    <glyph glyph-name="uni018F" unicode="&#x18f;" horiz-adv-x="2121" 
d="M150 754h1505q-5 149 -19.5 212t-52.5 95q-46 38 -145 49.5t-387 11.5q-266 0 -370 -13.5t-144 -51.5q-44 -44 -56 -129h-325q15 285 182 372q89 49 225.5 64.5t478.5 15.5q307 0 431.5 -5.5t195.5 -22.5q120 -31 186.5 -99t94.5 -188q13 -60 17.5 -142.5t4.5 -258.5
q0 -257 -29 -375t-108 -187q-57 -49 -137.5 -74t-208.5 -34q-132 -8 -510 -8q-311 0 -438.5 14.5t-206.5 60.5q-74 42 -110 105.5t-58 187.5q-21 133 -21 264q0 14 1 34t2 49.5t2 52.5zM1653 571h-1180q8 -132 33 -196t80 -90q52 -26 135.5 -33.5t322.5 -7.5
q141 0 222.5 2.5t146 7.5t97.5 18t54.5 30.5t39.5 47.5q38 56 49 221z" />
    <glyph glyph-name="florin" unicode="&#x192;" horiz-adv-x="1710" 
d="M770 983l23 104q30 150 85.5 229t155.5 112.5t277 33.5q37 0 172 -6l-37 -186h-72q-159 0 -223 -37t-84 -141l-23 -109h342l-36 -184h-342l-166 -750q-22 -104 -37 -146t-47 -87q-88 -123 -359 -123q-39 0 -174 6l37 188q35 -4 76 -4q162 0 201 80q20 39 39 127l155 709
h-221l37 184h221z" />
    <glyph glyph-name="uni01CD" unicode="&#x1cd;" horiz-adv-x="1964" 
d="M1473 270h-975l-152 -270h-354l782 1366h428l770 -1366h-344zM1356 492l-371 653l-367 -653h738zM983 1481l-453 213l54 112l399 -106l397 106l54 -112z" />
    <glyph glyph-name="uni01CE" unicode="&#x1ce;" horiz-adv-x="1517" 
d="M430 682h-272q3 80 22.5 127t63.5 82q63 51 165 69.5t312 18.5q278 0 394 -22t175 -87q43 -47 57.5 -103t14.5 -173v-594h-270v154q-26 -100 -115.5 -136t-312.5 -36q-195 0 -290.5 11t-146.5 40q-58 32 -85 92t-27 156q0 51 5 89.5t18 71.5t33 55.5t53.5 41t75 29
t102 18t130.5 10t164 2.5q105 0 170.5 -5.5t111.5 -20t69.5 -37.5t39.5 -62v105q0 52 -3.5 84t-17.5 59t-34 40t-61 22t-89.5 11.5t-127.5 2.5q-146 0 -207.5 -8t-86.5 -30.5t-30 -76.5zM727 432q-221 0 -291 -33q-25 -10 -39 -38.5t-14 -65.5q0 -57 30 -87t99 -40
q50 -6 231 -6q145 0 216.5 11.5t101 41t29.5 88.5q0 77 -52 96q-73 33 -311 33zM760 1096l-381 221l43 106l338 -131l338 131l41 -106z" />
    <glyph glyph-name="uni01D1" unicode="&#x1d1;" horiz-adv-x="630" 
d="M446 868l15 -868h-305l16 868h274zM473 1366v-315h-321v315h321z" />
    <glyph glyph-name="uni01D3" unicode="&#x1d3;" horiz-adv-x="2041" 
d="M1022 1481l-453 213l54 112l399 -106l397 106l56 -112zM1554 1366h316v-860q0 -195 -37 -290t-135 -150q-87 -51 -220 -65.5t-497 -14.5q-355 0 -498.5 28t-218.5 113q-53 60 -71.5 148.5t-18.5 277.5v813h315v-715q0 -132 1.5 -163t9.5 -76q7 -46 23.5 -74t47.5 -49
t91 -30.5t140.5 -14t209.5 -4.5q323 0 401 20q117 29 135 156q4 25 6 215v735z" />
    <glyph glyph-name="uni01D4" unicode="&#x1d4;" horiz-adv-x="1556" 
d="M1401 961v-961h-264v209q-31 -94 -82 -143.5t-140 -70t-245 -20.5q-170 0 -270 28.5t-160 94.5q-46 53 -65 123.5t-19 190.5v549h270v-537q0 -71 13.5 -113.5t52 -69.5t98.5 -36.5t162 -9.5q212 0 295 61.5t83 218.5v486h271zM778 1096l-379 221l41 106l338 -131l338 131
l43 -106z" />
    <glyph glyph-name="Gcaron" unicode="&#x1e6;" horiz-adv-x="2050" 
d="M1030 1481l-452 213l55 112l397 -106l397 106l56 -112zM987 731h916v-145q0 -185 -13.5 -273.5t-50.5 -156.5q-59 -106 -215 -146q-55 -13 -173.5 -17.5t-428.5 -4.5q-274 0 -417 10t-206 35q-98 37 -151.5 101t-75.5 173q-22 107 -22 363q0 270 22 384.5t88 186.5
q86 93 246 113q169 24 674 24q299 0 431 -26.5t197 -100.5q88 -98 88 -323h-309q-2 65 -12 95.5t-39 53.5q-39 32 -113.5 41.5t-275.5 9.5q-261 0 -375 -5t-167 -19t-81 -47q-32 -37 -44.5 -114.5t-12.5 -237.5q0 -199 15.5 -285t58.5 -123q45 -40 138.5 -52t369.5 -12
q196 0 281.5 4.5t127.5 16.5t72 41q65 62 65 203v26h-608v207z" />
    <glyph glyph-name="gcaron" unicode="&#x1e7;" horiz-adv-x="1597" 
d="M1442 961v-867q0 -222 -35.5 -320t-136.5 -155q-72 -40 -197 -57t-346 -17q-305 0 -422 64q-73 40 -113 112.5t-40 165.5v9h274v-9q3 -82 82 -116q68 -29 268 -29q72 0 120.5 2t93 9t71.5 17t50 30t34.5 43.5t20 62.5t10.5 82t2 106v86q-32 -67 -74 -104
q-95 -82 -373 -82q-129 0 -218.5 8.5t-160.5 31t-113 56.5t-70 91.5t-38 129.5t-10 176q0 106 9.5 178t37 129.5t69.5 91t114 55.5t162.5 30t223.5 8q160 0 249 -20t130 -66q36 -41 62 -127v195h264zM807 772q-180 0 -256.5 -14t-108.5 -53q-28 -31 -39.5 -79.5
t-11.5 -131.5q0 -99 14 -154t46 -84q44 -37 127 -47q9 -1 108.5 -4.5t126.5 -3.5q78 0 130 4t94 16.5t65.5 31t39 52.5t20.5 75.5t5 104.5q0 85 -8 127.5t-31 77.5q-31 49 -95.5 65.5t-225.5 16.5zM795 1096l-379 221l41 106l338 -131l338 131l43 -106z" />
    <glyph glyph-name="uni01F4" unicode="&#x1f4;" horiz-adv-x="2050" 
d="M866 1481l-49 125l535 206l71 -210zM987 731h916v-145q0 -185 -13.5 -273.5t-50.5 -156.5q-59 -106 -215 -146q-55 -13 -173.5 -17.5t-428.5 -4.5q-274 0 -417 10t-206 35q-98 37 -151.5 101t-75.5 173q-22 107 -22 363q0 270 22 384.5t88 186.5q86 93 246 113
q169 24 674 24q299 0 431 -26.5t197 -100.5q88 -98 88 -323h-309q-2 65 -12 95.5t-39 53.5q-39 32 -113.5 41.5t-275.5 9.5q-261 0 -375 -5t-167 -19t-81 -47q-32 -37 -44.5 -114.5t-12.5 -237.5q0 -199 15.5 -285t58.5 -123q45 -40 138.5 -52t369.5 -12q196 0 281.5 4.5
t127.5 16.5t72 41q65 62 65 203v26h-608v207z" />
    <glyph glyph-name="Scommaaccent" unicode="&#x218;" horiz-adv-x="1931" 
d="M150 432h309v-14q0 -126 55 -158q69 -41 356 -41q221 0 422 25q60 8 92.5 19.5t51.5 33.5q41 50 41 117q0 60 -29.5 91t-101.5 48q-38 9 -92.5 10.5t-340.5 3.5h-194q-210 0 -315 21t-164 74q-95 86 -95 264q0 114 27 202.5t74 131.5q70 64 242 91t511 27
q268 0 394.5 -15.5t212.5 -59.5q72 -37 103 -113.5t34 -228.5h-307q-3 113 -64 141q-91 43 -340 43q-408 0 -500 -47q-73 -34 -73 -133q0 -87 57 -121q35 -20 106.5 -27.5t231.5 -7.5h233q308 0 432.5 -23t188.5 -92q84 -87 84 -284q0 -213 -98 -308q-68 -65 -225 -89.5
t-502 -24.5q-369 0 -517.5 21t-213.5 83q-89 83 -89 270q0 30 3 70zM821 -109h279v-188q0 -67 -8 -98t-33 -56q-31 -31 -77 -43t-134 -12h-27v113h17q40 0 63 19.5t23 54.5q0 10 -2 16h-101v194z" />
    <glyph glyph-name="scommaaccent" unicode="&#x219;" horiz-adv-x="1505" 
d="M1071 692v8q0 41 -28.5 61.5t-99 29t-212.5 8.5q-130 0 -200.5 -10.5t-100 -35t-29.5 -69.5q0 -43 24 -62t87.5 -26.5t204.5 -7.5h149q188 0 277 -12t149 -46q103 -57 103 -229q0 -132 -50 -198.5t-171 -94.5q-118 -26 -484 -26q-249 0 -355.5 21.5t-160.5 82.5
q-35 38 -49 86t-14 125v10h282v-10q0 -31 5.5 -51t22.5 -36t42 -24.5t72 -14.5t103.5 -7.5t145.5 -1.5q139 0 208.5 10t97.5 34.5t28 72.5q0 49 -24.5 72.5t-86.5 32.5t-186 7q-173 -4 -377 4q-178 12 -249.5 73.5t-71.5 201.5q0 125 49 189.5t164 90.5q139 29 416 29
q223 0 327.5 -13t169.5 -48q103 -56 103 -220v-6h-281zM631 -109h260v-178q0 -63 -8 -93.5t-31 -55.5q-56 -53 -203 -53h-26v108h16q40 0 62 19.5t22 54.5l-2 14h-90v184z" />
    <glyph glyph-name="uni021A" unicode="&#x21a;" horiz-adv-x="1654" 
d="M670 0v1110h-643v256h1599v-256h-641v-1110h-315zM686 -109h279v-188q0 -66 -8.5 -98t-32.5 -56q-31 -31 -77 -43t-134 -12h-29v113h18q40 0 63 19.5t23 54.5q0 10 -2 16h-100v194z" />
    <glyph glyph-name="uni021B" unicode="&#x21b;" horiz-adv-x="1232" 
d="M1139 414v-62q0 -132 -15.5 -191.5t-60.5 -99.5q-51 -43 -132.5 -61t-225.5 -18q-190 0 -287.5 32.5t-141.5 110.5q-36 65 -36 199l4 444h-201v193h203v223h274v-223h610v-193h-612l-4 -389q0 -100 16 -127q33 -70 197 -70q124 0 160.5 36t36.5 159v37h215zM518 -109h258
v-178q0 -65 -8 -95.5t-31 -53.5q-29 -29 -74.5 -41t-125.5 -12h-27v108h16q40 0 62 19.5t22 54.5l-2 14h-90v184z" />
    <glyph glyph-name="uni0259" unicode="&#x259;" horiz-adv-x="1503" 
d="M121 532h989q0 159 -57 216q-59 53 -355 53q-171 0 -235.5 -29t-73.5 -110h-266q6 151 92 223q63 51 176.5 71.5t329.5 20.5q254 0 379.5 -27.5t189.5 -97.5q51 -54 73.5 -141t22.5 -226q0 -155 -27 -247.5t-89 -151.5q-64 -60 -179 -81t-368 -21q-230 0 -339 25t-171 93
q-51 59 -71.5 140t-20.5 227v63zM1110 373h-721q0 -72 25 -121q21 -41 53 -57q82 -35 242 -35q156 0 217.5 7t103.5 30q80 45 80 163v13z" />
    <glyph glyph-name="afii57929" unicode="&#x2bc;" horiz-adv-x="624" 
d="M154 1366h321v-301q0 -98 -14 -157t-52 -97t-98.5 -52t-160.5 -14q-14 0 -41 3v167q82 0 110.5 29t28.5 111h-94v311z" />
    <glyph glyph-name="circumflex" unicode="&#x2c6;" 
d="M512 1423l381 -223l-43 -104l-338 129l-338 -129l-41 104z" />
    <glyph glyph-name="caron" unicode="&#x2c7;" 
d="M512 1096l-379 221l41 106l338 -131l338 131l43 -106z" />
    <glyph glyph-name="uni02C9" unicode="&#x2c9;" 
d="M133 1311h760v-164h-760v164z" />
    <glyph glyph-name="breve" unicode="&#x2d8;" horiz-adv-x="894" 
d="M68 1386h186q6 -92 43.5 -121.5t146.5 -29.5q114 0 150.5 28.5t44.5 122.5h186q-14 -122 -50 -183t-111 -86t-218 -25q-108 0 -173.5 12t-110 47t-64.5 89t-30 146z" />
    <glyph glyph-name="dotaccent" unicode="&#x2d9;" 
d="M369 1139v184h286v-184h-286z" />
    <glyph glyph-name="ring" unicode="&#x2da;" 
d="M514 1438q133 0 205 -44.5t72 -127.5q0 -88 -74 -134.5t-213 -46.5q-124 0 -197.5 47.5t-73.5 127.5q0 83 74.5 130.5t206.5 47.5zM514 1337q-147 0 -147 -77q0 -74 139 -74q151 0 151 74q0 77 -143 77z" />
    <glyph glyph-name="ogonek" unicode="&#x2db;" 
d="M754 0h192q-103 -57 -146.5 -99.5t-43.5 -86.5q0 -38 34 -62t89 -24q41 0 90 16v-133q-56 -19 -111 -19q-119 0 -194.5 57t-75.5 146q0 62 39.5 110.5t126.5 94.5z" />
    <glyph glyph-name="tilde" unicode="&#x2dc;" 
d="M750 1376l155 -51q-68 -205 -225 -205q-69 0 -186 51q-82 37 -129 37q-66 0 -91 -86l-155 52q25 57 43.5 87t44.5 54q25 25 67 43t74 18q62 0 184 -53q70 -33 117 -33q37 0 64 22.5t37 63.5z" />
    <glyph glyph-name="hungarumlaut" unicode="&#x2dd;" horiz-adv-x="1116" 
d="M711 1079l-78 109l366 270l119 -168zM262 1079l-80 109l369 270l117 -168z" />
    <glyph glyph-name="tonos" unicode="&#x384;" horiz-adv-x="667" 
d="M412 1096h-158l-37 352h232z" />
    <glyph glyph-name="dieresistonos" unicode="&#x385;" horiz-adv-x="1013" 
d="M586 1096h-160l-35 352h232zM68 1139v180h243v-180h-243zM702 1139v180h244v-180h-244z" />
    <glyph glyph-name="Alphatonos" unicode="&#x386;" horiz-adv-x="1988" 
d="M1497 270h-975l-151 -270h-355l783 1366h428l770 -1366h-344zM1380 492l-370 653l-367 -653h737zM317 1096h-159l-37 352h231z" />
    <glyph glyph-name="uni0387" unicode="&#x387;" horiz-adv-x="638" 
d="M156 326v319h327v-319h-327z" />
    <glyph glyph-name="Epsilontonos" unicode="&#x388;" horiz-adv-x="1906" 
d="M317 0v1366h1452v-240h-1140v-323h1087v-215h-1087v-348h1155v-240h-1467zM154 1096h-158l-37 352h231z" />
    <glyph glyph-name="Etatonos" unicode="&#x389;" horiz-adv-x="2209" 
d="M317 0v1366h316v-543h1079v543h316v-1366h-316v569h-1079v-569h-316zM154 1096h-158l-37 352h231z" />
    <glyph glyph-name="Iotatonos" unicode="&#x38a;" horiz-adv-x="817" 
d="M317 0v1366h316v-1366h-316zM154 1096h-158l-37 352h231z" />
    <glyph glyph-name="Omicrontonos" unicode="&#x38c;" horiz-adv-x="2211" 
d="M1239 1380q250 0 381.5 -11t206 -39t127.5 -85q83 -91 100 -289q8 -84 8 -288q0 -258 -29 -377.5t-108 -188.5q-57 -50 -139 -75.5t-211 -32.5q-132 -8 -504 -8q-315 0 -437.5 14t-209.5 61q-141 77 -168 279q-16 120 -16 383q0 243 27.5 357.5t101.5 179.5
q55 49 134.5 74t211.5 36q117 10 524 10zM1112 1122q-118 0 -179 -0.5t-132 -9t-100.5 -15.5t-64.5 -35.5t-43.5 -51.5t-19.5 -80.5t-11.5 -106t-0.5 -143.5q0 -199 19.5 -279.5t76.5 -109.5q57 -31 148.5 -39t384.5 -8q199 0 296 8t146 29t72 65q25 44 34 124.5t9 252.5
q0 144 -13 217.5t-46 109.5t-101 52q-87 20 -475 20zM154 1096h-158l-37 352h231z" />
    <glyph glyph-name="Upsilontonos" unicode="&#x38e;" horiz-adv-x="2113" 
d="M1178 764l532 602h401l-778 -852v-514h-315v514l-785 852h408zM154 1096h-158l-37 352h231z" />
    <glyph glyph-name="Omegatonos" unicode="&#x38f;" horiz-adv-x="2295" 
d="M1360 0v489h57q77 0 126 1.5t95.5 8t72.5 14.5t50 27t34 40t18.5 58.5t10 76.5t1.5 100q0 122 -20.5 181.5t-69.5 84.5q-52 25 -160.5 33t-368.5 8q-245 0 -360 -5.5t-172 -19.5t-84 -46q-28 -32 -39.5 -85t-11.5 -151q0 -127 12.5 -184.5t44.5 -85.5q35 -31 114 -43.5
t236 -12.5h58v-489h-787v231h516v52q-106 2 -181 13t-134.5 36.5t-96.5 64t-61 99t-33.5 136.5t-9.5 183q0 248 63.5 365t223.5 163q78 22 215.5 29.5t462.5 7.5q359 0 496 -9t218 -40q93 -36 147 -96.5t78.5 -161t24.5 -258.5q0 -107 -9.5 -183t-33.5 -136.5t-61 -99
t-96.5 -64t-134.5 -36.5t-181 -13v-52h516v-231h-786zM154 1096h-158l-37 352h231z" />
    <glyph glyph-name="iotadieresistonos" unicode="&#x390;" horiz-adv-x="702" 
d="M215 0v961h270v-961h-270zM430 1096h-160l-34 352h231zM-88 1139v180h244v-180h-244zM547 1139v180h244v-180h-244z" />
    <glyph glyph-name="Alpha" unicode="&#x391;" horiz-adv-x="1964" 
d="M1473 270h-975l-152 -270h-354l782 1366h428l770 -1366h-344zM1356 492l-371 653l-367 -653h738z" />
    <glyph glyph-name="Beta" unicode="&#x392;" horiz-adv-x="2015" 
d="M182 0v1366h1178q255 0 358 -79.5t103 -276.5q0 -191 -88 -248q-63 -42 -179 -57q87 -7 132.5 -19t87.5 -37q47 -28 72.5 -96.5t25.5 -165.5q0 -207 -105 -297t-348 -90h-1237zM492 805h745q162 0 209 24q59 35 59 132q0 106 -65 141q-45 26 -172 26h-776v-323zM492 238
h813q143 0 195 37.5t52 140.5q0 111 -63 149q-50 27 -205 27h-792v-354z" />
    <glyph glyph-name="Gamma" unicode="&#x393;" horiz-adv-x="1536" 
d="M182 1366h1313v-256h-997v-1110h-316v1366z" />
    <glyph glyph-name="uni0394" unicode="&#x394;" horiz-adv-x="1902" 
d="M0 0l756 1366h407l740 -1366h-1903zM1427 240l-471 876l-475 -876h946z" />
    <glyph glyph-name="Epsilon" unicode="&#x395;" horiz-adv-x="1771" 
d="M182 0v1366h1452v-240h-1140v-323h1085v-215h-1085v-348h1153v-240h-1465z" />
    <glyph glyph-name="Zeta" unicode="&#x396;" horiz-adv-x="1814" 
d="M92 0v242l1159 884h-1120v240h1569v-242l-1168 -884h1186v-240h-1626z" />
    <glyph glyph-name="Eta" unicode="&#x397;" horiz-adv-x="2074" 
d="M182 0v1366h316v-543h1077v543h315v-1366h-315v569h-1077v-569h-316z" />
    <glyph glyph-name="Theta" unicode="&#x398;" horiz-adv-x="2121" 
d="M1149 1380q250 0 381.5 -11t206 -39t127.5 -85q83 -91 100 -289q8 -84 8 -288q0 -256 -29.5 -376.5t-107.5 -189.5q-57 -50 -139 -75.5t-211 -32.5q-132 -8 -504 -8q-315 0 -437.5 14t-209.5 61q-141 77 -168 279q-16 120 -16 387q0 239 27.5 353.5t101.5 179.5
q55 49 134.5 74t211.5 36q117 10 524 10zM1063 1122h-159.5t-125 -5t-101.5 -7.5t-73.5 -18.5t-56.5 -25.5t-34.5 -42t-25 -54.5t-10 -75.5t-6.5 -93v-118.5q0 -200 19.5 -281t76.5 -110q57 -31 148.5 -39t384.5 -8q263 0 358.5 14.5t136.5 60.5q35 38 48.5 118t13.5 253
q0 205 -14 269q-18 87 -83 120q-69 36 -266 41q-68 2 -231 2zM786 807h547v-254h-547v254z" />
    <glyph glyph-name="Iota" unicode="&#x399;" horiz-adv-x="681" 
d="M182 0v1366h316v-1366h-316z" />
    <glyph glyph-name="Kappa" unicode="&#x39a;" horiz-adv-x="1943" 
d="M182 0v1366h316v-545h229l696 545h453l-868 -672l936 -694h-474l-749 569h-223v-569h-316z" />
    <glyph glyph-name="Lambda" unicode="&#x39b;" horiz-adv-x="1902" 
d="M1903 0h-349l-598 1116l-604 -1116h-352l756 1366h407z" />
    <glyph glyph-name="Mu" unicode="&#x39c;" horiz-adv-x="2619" 
d="M182 0v1366h488l643 -1028l641 1028h481v-1366h-309l12 1124l-706 -1124h-248l-703 1124l8 -1124h-307z" />
    <glyph glyph-name="Nu" unicode="&#x39d;" horiz-adv-x="2174" 
d="M182 0v1366h490l1026 -1137l-6 1137h301v-1366h-492l-1020 1130l6 -1130h-305z" />
    <glyph glyph-name="Xi" unicode="&#x39e;" horiz-adv-x="1826" 
d="M137 1110v256h1555v-256h-1555zM193 571v254h1443v-254h-1443zM125 0v256h1579v-256h-1579z" />
    <glyph glyph-name="Omicron" unicode="&#x39f;" horiz-adv-x="2121" 
d="M1149 1380q250 0 381.5 -11t206 -39t127.5 -85q83 -91 100 -289q8 -84 8 -288q0 -256 -29.5 -376.5t-107.5 -189.5q-57 -50 -139 -75.5t-211 -32.5q-132 -8 -504 -8q-315 0 -437.5 14t-209.5 61q-141 77 -168 279q-16 120 -16 387q0 239 27.5 353.5t101.5 179.5
q55 49 134.5 74t211.5 36q117 10 524 10zM1063 1122h-159.5t-125 -5t-101.5 -7.5t-73.5 -18.5t-56.5 -25.5t-34.5 -42t-25 -54.5t-10 -75.5t-6.5 -93v-118.5q0 -200 19.5 -281t76.5 -110q57 -31 148.5 -39t384.5 -8q263 0 358.5 14.5t136.5 60.5q35 38 48.5 118t13.5 253
q0 205 -14 269q-18 87 -83 120q-69 36 -266 41q-68 2 -231 2z" />
    <glyph glyph-name="Pi" unicode="&#x3a0;" horiz-adv-x="2074" 
d="M1890 1366v-1366h-315v1112h-1077v-1112h-316v1366h1708z" />
    <glyph glyph-name="Rho" unicode="&#x3a1;" horiz-adv-x="1900" 
d="M182 0v1366h1067q229 0 314 -27q127 -38 178 -136t51 -304q0 -157 -27 -249t-90 -146q-54 -47 -141.5 -66.5t-247.5 -19.5h-790v-418h-314zM496 672h702q165 0 221 42.5t56 168.5q0 138 -52.5 183.5t-210.5 45.5h-716v-440z" />
    <glyph glyph-name="Sigma" unicode="&#x3a3;" horiz-adv-x="1794" 
d="M893 686l-762 438v242h1569v-240h-1077l723 -440l-783 -446h1155v-240h-1626v242z" />
    <glyph glyph-name="Tau" unicode="&#x3a4;" horiz-adv-x="1654" 
d="M670 0v1110h-643v256h1599v-256h-641v-1110h-315z" />
    <glyph glyph-name="Upsilon" unicode="&#x3a5;" horiz-adv-x="1880" 
d="M944 764l533 602h401l-778 -852v-514h-316v514l-784 852h408z" />
    <glyph glyph-name="Phi" unicode="&#x3a6;" horiz-adv-x="2471" 
d="M1391 1366v-123q339 0 459.5 -6.5t203.5 -28.5q109 -30 170 -88.5t88 -161t27 -274.5q0 -200 -34 -304.5t-118 -162.5q-55 -39 -136 -59t-222 -29q-106 -6 -438 -6v-123h-306v123q-338 0 -459 6.5t-204 28.5q-162 44 -223.5 157.5t-61.5 368.5q0 199 33.5 302t118.5 163
q55 40 135.5 59.5t222.5 28.5q106 6 438 6v123h306zM1085 360v646h-100q-99 0 -163.5 -1.5t-125 -8t-95 -15t-65.5 -27.5t-45 -40t-24.5 -58t-13 -76.5t-2.5 -99.5q0 -58 2.5 -96.5t13.5 -74.5t25.5 -57t44.5 -39.5t65 -27.5t93.5 -15.5t122.5 -8t159 -1.5h108zM1391 360
h108q95 0 159 1.5t122.5 8t93.5 15.5t65 27.5t44.5 39.5t25.5 57t13.5 74.5t2.5 96.5q0 60 -2.5 99.5t-13 76.5t-24.5 58t-45 40t-65.5 27.5t-95 15t-125 8t-163.5 1.5h-100v-646z" />
    <glyph glyph-name="Chi" unicode="&#x3a7;" horiz-adv-x="1986" 
d="M23 0l710 698l-663 668h419l504 -518l506 518h414l-662 -664l715 -702h-430l-543 553l-544 -553h-426z" />
    <glyph glyph-name="Psi" unicode="&#x3a8;" horiz-adv-x="2156" 
d="M1235 0h-315v285h-7h-10q-199 0 -307 9t-176 32q-100 32 -158.5 84.5t-89.5 138.5q-31 85 -31 303v514h316v-418q0 -167 14.5 -233t58.5 -103q51 -43 131 -58t259 -15v827h315v-827q143 2 210.5 7.5t108.5 18.5q63 20 92 55t40.5 103t11.5 205v438h315v-504
q0 -190 -19.5 -275.5t-78.5 -150.5q-66 -72 -175 -107.5t-282 -41.5q-76 0 -223 -2v-285z" />
    <glyph glyph-name="uni03A9" unicode="&#x3a9;" horiz-adv-x="2228" 
d="M1292 0v489h58q166 0 246 14.5t114 51.5q26 28 36.5 85.5t10.5 174.5q0 122 -20.5 181.5t-69.5 84.5q-51 25 -158.5 33t-367.5 8q-246 0 -362 -5.5t-173 -19.5t-84 -46q-28 -32 -39.5 -85.5t-11.5 -152.5q0 -61 1.5 -99.5t10 -76t18.5 -58t34 -39.5t50 -27t72.5 -14.5
t95.5 -8t126 -1.5h57v-489h-786v231h516v52q-106 2 -181 13t-134.5 36.5t-96.5 64t-61 99t-33.5 136.5t-9.5 183q0 168 27.5 271.5t89 164.5t169.5 92q78 22 216 29.5t462 7.5q360 0 496 -9t217 -40q139 -52 194.5 -166.5t55.5 -349.5q0 -160 -22 -257.5t-82.5 -160
t-156 -87t-253.5 -27.5v-52h514v-231h-785z" />
    <glyph glyph-name="Iotadieresis" unicode="&#x3aa;" horiz-adv-x="681" 
d="M184 0v1366h316v-1366h-316zM8 1522v200h287v-200h-287zM389 1522v200h285v-200h-285z" />
    <glyph glyph-name="Upsilondieresis" unicode="&#x3ab;" horiz-adv-x="1880" 
d="M944 764l533 602h401l-778 -852v-514h-316v514l-784 852h408zM508 1522v200h330v-200h-330zM1042 1522v200h330v-200h-330z" />
    <glyph glyph-name="alphatonos" unicode="&#x3ac;" horiz-adv-x="1587" 
d="M1208 961h283l-100 -482l100 -479h-283l-30 193l-4 2q-31 -89 -77 -133t-125.5 -62t-226.5 -18q-198 0 -300 14.5t-169 52.5q-83 47 -119 148t-36 282q0 183 36.5 284t121.5 148q64 38 157 53t262 15q171 0 262 -18t139.5 -62.5t74.5 -132.5h4zM1157 483q-19 69 -34 111
t-38.5 77.5t-48 53.5t-67.5 30t-92 15.5t-127 3.5q-205 0 -271 -39q-86 -48 -86 -256q0 -206 86 -254q66 -39 283 -39q75 0 122.5 3.5t89.5 16t66.5 31t47 54.5t37 79.5t32.5 112.5zM831 1096h-159l-37 352h233z" />
    <glyph glyph-name="epsilontonos" unicode="&#x3ad;" horiz-adv-x="1503" 
d="M1380 606h-278q-3 77 -47 115q-37 32 -109.5 42.5t-253.5 10.5q-187 0 -246 -19.5t-59 -82.5q0 -47 33.5 -68.5t107.5 -21.5h289v-183h-289q-141 0 -141 -96q0 -67 78 -96q61 -21 231 -21q247 0 312 23q54 19 77.5 54.5t26.5 101.5h281q-6 -190 -93 -271
q-66 -63 -195 -87.5t-394 -24.5q-199 0 -307.5 15.5t-178.5 55.5q-56 32 -86 89t-30 130q0 95 44 147t144 75q-96 17 -142 68t-46 140q0 152 121 214.5t419 62.5q313 0 445 -23.5t200 -89.5q44 -44 63.5 -103.5t22.5 -156.5zM811 1096h-160l-37 352h232z" />
    <glyph glyph-name="etatonos" unicode="&#x3ae;" horiz-adv-x="1556" 
d="M156 0v961h264v-209q31 94 82.5 143t139.5 69.5t245 20.5q170 0 270 -28.5t160 -94.5q46 -53 65 -123.5t19 -189.5v-963h-271v951q0 56 -9.5 94t-30.5 65t-59.5 42t-92 21.5t-133.5 6.5q-212 0 -295.5 -62t-83.5 -219v-485h-270zM870 1096h-159l-35 352h231z" />
    <glyph glyph-name="iotatonos" unicode="&#x3af;" horiz-adv-x="581" 
d="M154 0v961h270v-961h-270zM369 1096h-160l-37 352h231z" />
    <glyph glyph-name="upsilondieresistonos" unicode="&#x3b0;" horiz-adv-x="1556" 
d="M1130 961h271v-541q0 -155 -36.5 -241t-121.5 -132q-70 -39 -162.5 -52t-300.5 -13q-211 0 -304 13t-163 52q-84 46 -120.5 132.5t-36.5 240.5v541h270v-547q0 -49 5.5 -82.5t21.5 -60t40 -42t65 -26t92.5 -14t127.5 -3.5t127.5 3.5t92.5 14t65 26t40 42t21.5 60
t5.5 82.5v547zM858 1096h-160l-34 352h231zM340 1139v180h244v-180h-244zM973 1139v180h244v-180h-244z" />
    <glyph glyph-name="alpha" unicode="&#x3b1;" horiz-adv-x="1587" 
d="M1208 961h283l-100 -482l100 -479h-283l-30 193l-4 2q-31 -89 -77 -133t-125.5 -62t-226.5 -18q-198 0 -300 14.5t-169 52.5q-83 47 -119 148t-36 282q0 183 36.5 284t121.5 148q64 38 157 53t262 15q171 0 262 -18t139.5 -62.5t74.5 -132.5h4zM1157 483q-19 69 -34 111
t-38.5 77.5t-48 53.5t-67.5 30t-92 15.5t-127 3.5q-205 0 -271 -39q-86 -48 -86 -256q0 -206 86 -254q66 -39 283 -39q75 0 122.5 3.5t89.5 16t66.5 31t47 54.5t37 79.5t32.5 112.5z" />
    <glyph glyph-name="beta" unicode="&#x3b2;" horiz-adv-x="1599" 
d="M156 -414v1356q0 131 25 210t83 130q71 62 195 85.5t377 23.5q188 0 294 -15.5t175 -52.5q137 -72 137 -293q0 -115 -36 -181.5t-112 -96.5q-49 -18 -123 -25q173 -19 240.5 -93.5t67.5 -246.5q0 -199 -107 -303q-58 -55 -171 -78.5t-318 -23.5q-221 0 -323.5 41
t-133.5 141v-578h-270zM702 627v192h232q135 0 183 36.5t48 139.5q0 79 -30 119t-103 56t-219 16q-235 0 -301 -35q-86 -50 -86 -195v-440q0 -124 13 -179.5t50 -86.5q37 -32 104.5 -46t192.5 -14q149 0 218 8t114 31q82 39 82 193q0 114 -59 159.5t-207 45.5h-232z" />
    <glyph glyph-name="gamma" unicode="&#x3b3;" horiz-adv-x="1390" 
d="M831 0v-414h-270v414h-47l-506 961h305l383 -762l383 762h303l-503 -961h-48z" />
    <glyph glyph-name="delta" unicode="&#x3b4;" horiz-adv-x="1562" 
d="M705 954l-467 205v211h1089v-192h-645l528 -230q98 -42 146.5 -93t68 -134t19.5 -234q0 -179 -24 -266.5t-87 -138.5q-66 -55 -183.5 -77.5t-338.5 -22.5q-228 0 -349.5 15t-185.5 52q-89 51 -122 142t-33 286q0 164 23 250t81 137q59 50 154.5 71t263.5 21q33 0 62 -2z
M780 776q-128 0 -194.5 -8.5t-106.5 -30.5q-84 -49 -84 -254q0 -72 4 -115t21.5 -79.5t42 -54t76 -30t112.5 -15.5t162 -3q79 0 131 4t94.5 16.5t66 31t39 52t20.5 75t5 104.5q0 55 -2 92t-10.5 71t-19.5 54.5t-33.5 38.5t-48 26.5t-69 15t-90.5 8t-116 1.5z" />
    <glyph glyph-name="epsilon" unicode="&#x3b5;" horiz-adv-x="1503" 
d="M1380 606h-278q-3 77 -47 115q-37 32 -109.5 42.5t-253.5 10.5q-187 0 -246 -19.5t-59 -82.5q0 -47 33.5 -68.5t107.5 -21.5h289v-183h-289q-141 0 -141 -96q0 -63 65 -90t218 -27q186 0 257.5 7t112.5 30q66 37 72 142h281q-6 -190 -93 -271q-66 -63 -195 -87.5
t-394 -24.5q-199 0 -307.5 15.5t-178.5 55.5q-56 32 -86 89t-30 130q0 95 44 147t144 75q-96 17 -142 68t-46 140q0 152 121 214.5t419 62.5q313 0 445 -23.5t200 -89.5q44 -44 63.5 -103.5t22.5 -156.5z" />
    <glyph glyph-name="zeta" unicode="&#x3b6;" horiz-adv-x="1384" 
d="M1270 -344h-269q12 24 15 33q55 126 55 207q0 46 -35.5 66t-113.5 20h-125q-205 0 -323 16t-183 53q-170 93 -170 391q0 187 67 281q36 53 119.5 116.5t186.5 118.5l417 220h-718v192h1132v-211l-502 -264q-329 -173 -389 -289q-39 -71 -39 -172q0 -62 11.5 -102.5
t37 -70.5t73.5 -45.5t114 -22.5t166 -7h211q164 0 247.5 -55.5t83.5 -163.5q0 -124 -69 -311z" />
    <glyph glyph-name="eta" unicode="&#x3b7;" horiz-adv-x="1556" 
d="M156 0v961h264v-209q31 94 82.5 143t139.5 69.5t245 20.5q170 0 270 -28.5t160 -94.5q46 -53 65 -123.5t19 -189.5v-963h-271v951q0 56 -9.5 94t-30.5 65t-59.5 42t-92 21.5t-133.5 6.5q-212 0 -295.5 -62t-83.5 -219v-485h-270z" />
    <glyph glyph-name="theta" unicode="&#x3b8;" horiz-adv-x="1562" 
d="M801 1391q208 0 329.5 -29t186.5 -94q74 -74 100.5 -200t26.5 -406q0 -147 -10 -247t-39 -180t-73 -125.5t-120 -76t-171 -41t-236 -10.5q-192 0 -306.5 17.5t-182 58t-109.5 114.5q-41 72 -58.5 190t-17.5 322q0 299 40.5 432.5t149.5 196.5q138 78 490 78zM1169 584
h-774q4 -92 11 -150t25.5 -106t43 -73t71.5 -42t103.5 -22t145.5 -5q148 0 216.5 22t102.5 81q52 87 55 295zM395 776h774q-3 94 -10 154t-24.5 109t-41.5 75t-68.5 43.5t-98.5 23t-138 5.5q-157 0 -230.5 -23t-104.5 -82q-53 -102 -58 -305z" />
    <glyph glyph-name="iota" unicode="&#x3b9;" horiz-adv-x="581" 
d="M156 0v961h270v-961h-270z" />
    <glyph glyph-name="kappa" unicode="&#x3ba;" horiz-adv-x="1390" 
d="M156 0v961h270v-371h84l444 371h381l-577 -457l649 -504h-383l-506 391h-92v-391h-270z" />
    <glyph glyph-name="lambda" unicode="&#x3bb;" horiz-adv-x="1341" 
d="M14 0l473 961h113l-37 75q-36 76 -68 112.5t-76.5 51t-123.5 14.5q-23 0 -43 -2v191q70 6 113 6q208 0 297 -86q34 -32 59.5 -74t71.5 -139l536 -1110h-297l-358 774l-363 -774h-297z" />
    <glyph glyph-name="uni03BC" unicode="&#x3bc;" horiz-adv-x="1556" 
d="M426 4v-418h-270v1375h270v-537q0 -71 13.5 -113.5t52 -69.5t98.5 -36.5t162 -9.5q212 0 295 61.5t83 218.5v486h271v-961h-264v209q-31 -93 -82.5 -142.5t-141 -70.5t-245.5 -21q-163 0 -242 29z" />
    <glyph glyph-name="nu" unicode="&#x3bd;" horiz-adv-x="1398" 
d="M12 961h305l383 -762l383 762h303l-503 -961h-365z" />
    <glyph glyph-name="xi" unicode="&#x3be;" horiz-adv-x="1376" 
d="M1307 1178h-496q-165 0 -234 -46t-69 -155q0 -141 117 -178q40 -11 125 -11h301v-192h-379q-155 0 -216 -43.5t-61 -153.5q0 -134 82 -182q53 -31 209 -31h322q163 0 247 -56t84 -163q0 -124 -69 -311h-269q70 162 70 238q0 47 -34.5 67.5t-114.5 20.5h-220
q-158 0 -231.5 7.5t-132.5 30.5q-217 81 -217 355q0 113 44 182.5t138 104.5q57 21 176 32q-128 17 -187 76.5t-59 171.5q0 104 50.5 160.5t160.5 75.5h-251v192h1114v-192z" />
    <glyph glyph-name="omicron" unicode="&#x3bf;" horiz-adv-x="1562" 
d="M774 979q254 0 381.5 -25t194.5 -88q54 -51 74 -136.5t20 -266.5q0 -127 -23 -224t-63 -137q-57 -57 -144 -82q-56 -17 -183 -27.5t-267 -10.5q-143 0 -237.5 7t-171 29t-118.5 54.5t-70 92t-37 133t-9 185.5q0 163 23 251t79 138q55 49 146 72q54 14 178 24.5t227 10.5z
M821 774q-180 0 -259 -14.5t-113 -54.5q-29 -32 -41.5 -84.5t-12.5 -143.5q0 -65 5 -108t20.5 -77.5t39 -53.5t66 -31.5t94.5 -16.5t132 -4q267 0 331 37q47 28 66.5 83.5t19.5 164.5q0 68 -5 112.5t-20 80.5t-37.5 55.5t-64 33t-92.5 17.5t-129 4z" />
    <glyph glyph-name="pi" unicode="&#x3c0;" horiz-adv-x="1517" 
d="M223 768h-188v193h1446v-193h-189v-768h-270v768h-528v-768h-271v768z" />
    <glyph glyph-name="rho" unicode="&#x3c1;" horiz-adv-x="1599" 
d="M426 164v-578h-270v903q0 107 10 178.5t39 129.5t72.5 90.5t120.5 54.5t173 29.5t238 7.5q112 0 193 -4t152 -15t118 -27t86 -44.5t61 -63.5t37 -87.5t20 -112.5t5 -142q0 -106 -10 -179.5t-37 -131.5t-67.5 -93t-108.5 -57.5t-153 -31t-208 -8.5q-232 0 -336 40.5
t-135 141.5zM645 199l225 -9q74 0 122.5 4t88 17t61 32.5t36.5 55t19.5 79.5t4.5 111q0 91 -14.5 144.5t-48.5 85.5q-40 37 -127 47l-238 8q-79 0 -130 -4t-92.5 -17t-64 -32.5t-37.5 -56t-19.5 -81.5t-4.5 -114q0 -195 84 -238q59 -32 135 -32z" />
    <glyph glyph-name="uni03C2" unicode="&#x3c2;" horiz-adv-x="1482" 
d="M1393 606h-277v8q3 35 -17.5 69.5t-54.5 55.5q-60 35 -278 35q-147 0 -214 -14.5t-101 -54.5q-56 -62 -56 -228q0 -172 68 -237q34 -32 101.5 -43t232.5 -11h211q164 0 247.5 -55.5t83.5 -163.5q0 -124 -69 -311h-269q5 9 15 33q55 126 55 207q0 46 -35 66t-114 20h-125
q-204 0 -321.5 16t-182.5 51q-91 52 -131.5 153t-40.5 273q0 107 11 181t40.5 132.5t74 93.5t120.5 57.5t171.5 31t233.5 8.5q149 0 249.5 -11t174 -35t114.5 -68.5t61 -106t22 -152.5z" />
    <glyph glyph-name="sigma" unicode="&#x3c3;" horiz-adv-x="1603" 
d="M1563 768l-344 31q129 -41 177 -121.5t48 -255.5q0 -107 -23 -193.5t-63 -126.5q-57 -57 -144 -82q-56 -17 -183 -27.5t-267 -10.5q-143 0 -237.5 7t-171 29t-118.5 54.5t-70 92t-37 133t-9 185.5q0 163 23.5 252.5t78.5 136.5q66 59 236.5 93.5t300.5 15.5l14 -2h29
q75 -1 189.5 -4.5t121.5 -3.5l449 -10v-193zM821 774q-180 0 -259 -14.5t-113 -54.5q-29 -32 -41.5 -84.5t-12.5 -143.5q0 -65 5 -108t20.5 -77.5t39 -53.5t66 -31.5t94.5 -16.5t132 -4q267 0 331 37q47 28 66.5 83.5t19.5 164.5q0 68 -5 112.5t-20 80.5t-37.5 55.5t-64 33
t-92.5 17.5t-129 4z" />
    <glyph glyph-name="tau" unicode="&#x3c4;" horiz-adv-x="1159" 
d="M444 768h-426v193h1121v-193h-424v-768h-271v768z" />
    <glyph glyph-name="upsilon" unicode="&#x3c5;" horiz-adv-x="1556" 
d="M1130 961h271v-541q0 -155 -36.5 -241t-121.5 -132q-71 -39 -163.5 -52t-301.5 -13t-302 13t-163 52q-84 46 -120.5 132.5t-36.5 240.5v541h270v-547q0 -49 5.5 -82.5t21.5 -60t40 -42t65 -26t92.5 -14t127.5 -3.5t127.5 3.5t92.5 14t65 26t40 42t21.5 60t5.5 82.5v547z
" />
    <glyph glyph-name="phi" unicode="&#x3c6;" horiz-adv-x="1880" 
d="M582 973v-203q-114 -15 -152.5 -76.5t-38.5 -224.5q0 -133 32 -192t114 -78q73 -17 270 -17v797q414 0 542 -9t216 -44q78 -31 119 -81.5t58 -137t17 -236.5q0 -186 -29 -272.5t-112 -141.5q-58 -41 -182.5 -58t-362.5 -17v-396h-266v396q-242 0 -367.5 18t-185.5 61
q-77 57 -105 143.5t-28 266.5q0 197 30 287t113 141q110 68 318 74zM1073 778v-596q75 0 125.5 1.5t96.5 7.5t73.5 14.5t52 26t36 37.5t20 53.5t10.5 70t2 90.5q0 137 -30.5 197t-112.5 82q-69 16 -273 16z" />
    <glyph glyph-name="chi" unicode="&#x3c7;" horiz-adv-x="1304" 
d="M-8 -414l469 721l-424 654h325l287 -472l293 472h318l-418 -639l471 -736h-318l-346 564l-346 -564h-311z" />
    <glyph glyph-name="psi" unicode="&#x3c8;" horiz-adv-x="1843" 
d="M1057 961v-775h51q109 0 170.5 15.5t95.5 52.5q23 25 33 64.5t10 111.5v531h271v-525q0 -133 -25.5 -218t-89 -139t-163.5 -75.5t-257 -21.5h-96v-396h-271v396h-67q-203 0 -308.5 27.5t-166.5 96.5q-49 55 -68.5 129t-19.5 201v525h270v-531q0 -80 11 -120t42 -66
q37 -31 95.5 -44.5t160.5 -13.5h51v775h271z" />
    <glyph glyph-name="omega" unicode="&#x3c9;" horiz-adv-x="1818" 
d="M1044 526v-133q0 -114 40 -160.5t137 -46.5q123 0 163.5 60.5t40.5 242.5q0 167 -45 224.5t-178 60.5v205q138 -2 212 -15.5t132 -48.5q86 -51 120 -144.5t34 -281.5q0 -169 -27.5 -262.5t-93.5 -152.5q-108 -92 -330 -92q-194 0 -272 84q-49 56 -68 112
q-13 -52 -65 -112q-78 -84 -273 -84q-129 0 -212 27t-140 87q-53 57 -75.5 147.5t-22.5 245.5q0 188 33.5 281.5t119.5 144.5q58 35 132 48.5t212 15.5v-205q-133 -3 -178 -59.5t-45 -222.5q0 -183 41 -244.5t164 -61.5q97 0 136.5 46.5t39.5 160.5v133h268z" />
    <glyph glyph-name="iotadieresis" unicode="&#x3ca;" horiz-adv-x="581" 
d="M156 0v961h270v-961h-270zM0 1139v180h244v-180h-244zM340 1139v180h244v-180h-244z" />
    <glyph glyph-name="upsilondieresis" unicode="&#x3cb;" horiz-adv-x="1556" 
d="M1130 961h271v-541q0 -155 -36.5 -241t-121.5 -132q-70 -39 -162.5 -52t-298.5 -13q-212 0 -305.5 13t-163.5 52q-84 46 -120.5 132.5t-36.5 240.5v541h270v-547q0 -74 13 -115.5t54 -68.5t106.5 -35.5t180.5 -8.5q75 0 126.5 3.5t92.5 14t64.5 26t39.5 42t21.5 60
t5.5 82.5v547zM414 1139v180h282v-180h-282zM868 1139v180h283v-180h-283z" />
    <glyph glyph-name="omicrontonos" unicode="&#x3cc;" horiz-adv-x="1562" 
d="M774 979q254 0 381.5 -25t194.5 -88q54 -51 74 -136.5t20 -266.5q0 -127 -23 -224t-63 -137q-57 -57 -144 -82q-56 -17 -183 -27.5t-267 -10.5q-143 0 -237.5 7t-171 29t-118.5 54.5t-70 92t-37 133t-9 185.5q0 163 23 251t79 138q55 49 146 72q54 14 178 24.5t227 10.5z
M821 774q-180 0 -259 -14.5t-113 -54.5q-29 -32 -41.5 -84.5t-12.5 -143.5q0 -65 5 -108t20.5 -77.5t39 -53.5t66 -31.5t94.5 -16.5t132 -4q267 0 331 37q47 28 66.5 83.5t19.5 164.5q0 68 -5 112.5t-20 80.5t-37.5 55.5t-64 33t-92.5 17.5t-129 4zM862 1096h-160l-36 352
h231z" />
    <glyph glyph-name="upsilontonos" unicode="&#x3cd;" horiz-adv-x="1556" 
d="M1130 961h271v-541q0 -155 -36.5 -241t-121.5 -132q-70 -39 -163 -52t-302 -13t-302 13t-163 52q-84 46 -120.5 132.5t-36.5 240.5v541h270v-547q0 -49 5.5 -82.5t21.5 -60t39.5 -42t64.5 -26t92.5 -14t126.5 -3.5q76 0 128 3.5t93.5 14t65.5 26t40 42t21.5 60t5.5 82.5
v547zM858 1096h-160l-34 352h231z" />
    <glyph glyph-name="omegatonos" unicode="&#x3ce;" horiz-adv-x="1849" 
d="M991 1096h-160l-36 352h231zM1044 526v-133q0 -114 40 -160.5t137 -46.5q123 0 163.5 60.5t40.5 242.5q0 167 -45 224.5t-178 60.5v205q138 -2 212 -15.5t132 -48.5q86 -51 120 -144.5t34 -281.5q0 -169 -27.5 -262.5t-93.5 -152.5q-108 -92 -330 -92q-194 0 -272 84
q-49 56 -68 112q-13 -52 -65 -112q-78 -84 -273 -84q-129 0 -212 27t-140 87q-53 57 -75.5 147.5t-22.5 245.5q0 188 33.5 281.5t119.5 144.5q58 35 132 48.5t212 15.5v-205q-133 -3 -178 -59.5t-45 -222.5q0 -183 41 -244.5t164 -61.5q97 0 136.5 46.5t39.5 160.5v133h268z
" />
    <glyph glyph-name="theta1" unicode="&#x3d1;" horiz-adv-x="1587" 
d="M1384 756v-336q0 -154 -36.5 -240.5t-120.5 -132.5q-70 -39 -163 -52t-304 -13q-208 0 -300.5 13t-162.5 52q-85 46 -121.5 132.5t-36.5 240.5v301h271v-305q0 -74 13 -116.5t53.5 -69.5t105 -35.5t178.5 -8.5q115 0 180.5 8.5t106.5 35.5t54 69t13 117v340h-264
q-148 0 -222 11.5t-132 43.5q-69 38 -107.5 107.5t-38.5 156.5q0 201 195 275q98 41 297 41q218 0 325 -40t166 -143q29 -46 40 -104.5t11 -155.5h175v-192h-175zM825 948h289q0 68 -4.5 97t-19.5 55q-26 47 -78.5 66.5t-155.5 19.5q-129 0 -183.5 -28.5t-54.5 -96.5
q0 -61 50 -90q23 -14 55.5 -18.5t101.5 -4.5z" />
    <glyph glyph-name="phi1" unicode="&#x3d5;" horiz-adv-x="1880" 
d="M1073 1370v-389q115 0 197.5 -3.5t155.5 -14.5t121 -27t87.5 -45t61.5 -63.5t37.5 -87t20.5 -112.5t5 -143q0 -219 -43 -316.5t-160 -141.5q-119 -45 -483 -45v-396h-266v396q-205 0 -321.5 12t-178.5 41q-107 46 -146.5 141.5t-39.5 308.5q0 83 5 143t20.5 112.5
t37.5 87t61.5 63.5t87.5 45t121 27t155.5 14.5t197.5 3.5v389h266zM807 182v598q-145 0 -213 -8.5t-113 -32.5q-48 -25 -69 -85t-21 -175q0 -71 4.5 -114t22 -79.5t42.5 -54.5t76 -30.5t111.5 -15.5t159.5 -3zM1073 780v-598q99 0 159.5 3t111.5 15.5t76 30.5t42.5 54.5
t22 79.5t4.5 114q0 70 -5 114t-22.5 80.5t-43 55t-76 31.5t-111.5 16.5t-158 3.5z" />
    <glyph glyph-name="afii10023" unicode="&#x401;" horiz-adv-x="1771" 
d="M182 0v1366h1452v-240h-1140v-323h1085v-215h-1085v-348h1153v-240h-1465zM479 1522v200h330v-200h-330zM1014 1522v200h329v-200h-329z" />
    <glyph glyph-name="afii10051" unicode="&#x402;" horiz-adv-x="2039" 
d="M1626 1110h-852v-432q29 83 82 125.5t148 60t268 17.5q195 0 304 -14t181 -48q103 -50 149 -134t46 -228v-45q0 -279 -256 -371q-75 -26 -165.5 -37t-252.5 -14v248q29 -2 70 -2q161 0 224.5 42.5t63.5 151.5v39q0 51 -11.5 83.5t-37.5 56.5t-77 36t-120.5 17.5
t-177.5 5.5q-181 0 -260 -17.5t-123 -68.5q-30 -33 -42.5 -74.5t-12.5 -108.5v-399h-315v1110h-432v256h1599v-256z" />
    <glyph glyph-name="afii10052" unicode="&#x403;" horiz-adv-x="1536" 
d="M182 1366h1313v-256h-997v-1110h-316v1366zM649 1481l-49 125l533 206l73 -210z" />
    <glyph glyph-name="afii10053" unicode="&#x404;" horiz-adv-x="1990" 
d="M467 797h676v-215h-676q3 -113 22 -179t58 -100q41 -35 130 -47t314 -12q243 0 334.5 8.5t144.5 36.5q70 36 70 172v31h305v-23q0 -146 -17.5 -226t-60.5 -126q-48 -54 -119 -80.5t-195 -37.5t-353 -11q-411 0 -543.5 13t-222.5 62q-115 63 -156 222q-28 109 -28 422
q0 195 16 306.5t54.5 176.5t111.5 106q87 49 225.5 65.5t462.5 16.5q356 0 505.5 -25.5t213.5 -97.5q87 -93 90 -348h-301q0 41 -2 67t-12 51t-22 38.5t-41 26.5t-60 18.5t-87.5 9.5t-115 5t-150.5 1q-275 0 -370 -13.5t-136 -59.5q-34 -37 -49 -95t-16 -159z" />
    <glyph glyph-name="afii10054" unicode="&#x405;" horiz-adv-x="1931" 
d="M150 432h309v-14q0 -126 55 -158q69 -41 356 -41q221 0 422 25q60 8 92.5 19.5t51.5 33.5q41 50 41 117q0 60 -29.5 91t-101.5 48q-38 9 -92.5 10.5t-340.5 3.5h-194q-210 0 -315 21t-164 74q-95 86 -95 264q0 114 27 202.5t74 131.5q70 64 242 91t511 27
q268 0 394.5 -15.5t212.5 -59.5q72 -37 103 -113.5t34 -228.5h-307q-3 113 -64 141q-91 43 -340 43q-408 0 -500 -47q-73 -34 -73 -133q0 -87 57 -121q35 -20 106.5 -27.5t231.5 -7.5h233q308 0 432.5 -23t188.5 -92q84 -87 84 -284q0 -213 -98 -308q-68 -65 -225 -89.5
t-502 -24.5q-369 0 -517.5 21t-213.5 83q-89 83 -89 270q0 30 3 70z" />
    <glyph glyph-name="afii10055" unicode="&#x406;" horiz-adv-x="681" 
d="M182 0v1366h316v-1366h-316z" />
    <glyph glyph-name="afii10056" unicode="&#x407;" horiz-adv-x="681" 
d="M184 0v1366h316v-1366h-316zM8 1522v200h287v-200h-287zM389 1522v200h285v-200h-285z" />
    <glyph glyph-name="afii10057" unicode="&#x408;" horiz-adv-x="1597" 
d="M1104 1366h315v-778q0 -215 -27 -322.5t-98 -173.5q-81 -78 -268 -96q-90 -8 -313 -8q-262 0 -382 26t-186 97q-46 51 -64 131t-18 237v70h302v-66q0 -86 12.5 -128.5t44.5 -67.5q57 -47 307 -47q153 0 229 15t105 50q25 31 33 80.5t8 173.5v807z" />
    <glyph glyph-name="afii10058" unicode="&#x409;" horiz-adv-x="3166" 
d="M242 1366h1560v-418h750q173 0 264 -23.5t145 -82.5q51 -56 74 -144.5t23 -232.5q0 -151 -25 -237.5t-84 -139.5q-58 -52 -147 -70t-287 -18h-1026v1112h-932v-485q0 -148 -17.5 -240.5t-60.5 -167.5q-67 -118 -175.5 -173.5t-270.5 -55.5h-23v248q130 0 185 102
q26 46 36.5 108.5t10.5 174.5v743zM1802 694v-440h676q158 0 210 45t52 182q0 128 -55 170.5t-221 42.5h-662z" />
    <glyph glyph-name="afii10059" unicode="&#x40a;" horiz-adv-x="3211" 
d="M498 1366v-483h1036v483h313v-483h750q105 0 179 -8t132.5 -28.5t94 -52.5t59 -83.5t32.5 -117t9 -157.5q0 -134 -24.5 -215t-78.5 -131q-57 -49 -156 -69.5t-284 -20.5h-1026v629h-1036v-629h-316v1366h316zM1847 629v-375h676q156 0 209 40t53 157q0 44 -7.5 73.5
t-25 51t-50.5 32.5t-78.5 16t-114.5 5h-662z" />
    <glyph glyph-name="afii10060" unicode="&#x40b;" horiz-adv-x="2039" 
d="M459 0v1110h-432v256h1599v-256h-852v-432q30 84 82.5 126.5t148.5 59.5t275 17q214 0 315.5 -16t192.5 -64q86 -44 125 -128t39 -222v-451h-316v418q0 95 -15 137.5t-56 65.5q-47 26 -126 36.5t-227 10.5q-178 0 -258.5 -18.5t-124.5 -69.5q-31 -34 -43 -74.5
t-12 -106.5v-399h-315z" />
    <glyph glyph-name="afii10061" unicode="&#x40c;" horiz-adv-x="1943" 
d="M182 0v1366h316v-545h229l696 545h453l-868 -672l936 -694h-474l-749 569h-223v-569h-316zM768 1481l-49 125l534 206l72 -210z" />
    <glyph glyph-name="afii10062" unicode="&#x40e;" horiz-adv-x="1849" 
d="M930 616l526 750h399l-856 -1122q-58 -77 -91 -110.5t-89 -70.5q-112 -73 -360 -73h-53v248q27 -2 63 -2q99 0 155.5 23.5t100.5 84.5l29 39l-760 983h403zM494 1784h208q6 -90 51.5 -121t172.5 -31q95 0 142 12.5t67.5 43.5t25.5 96h211q-12 -95 -36 -151t-75.5 -91.5
t-127.5 -48t-201 -12.5q-100 0 -167 8.5t-118 28t-80.5 55.5t-47 86t-25.5 125z" />
    <glyph glyph-name="afii10145" unicode="&#x40f;" horiz-adv-x="2074" 
d="M879 0h-697v1366h316v-1112h1077v1112h315v-1366h-696v-272h-315v272z" />
    <glyph glyph-name="afii10017" unicode="&#x410;" horiz-adv-x="1964" 
d="M1473 270h-975l-152 -270h-354l782 1366h428l770 -1366h-344zM1356 492l-371 653l-367 -653h738z" />
    <glyph glyph-name="afii10018" unicode="&#x411;" horiz-adv-x="1900" 
d="M496 1126v-278h831q114 0 190.5 -12.5t132 -40t85.5 -78t43.5 -120.5t13.5 -175q0 -87 -9.5 -148.5t-34 -110t-61.5 -78.5t-97.5 -50t-137 -27.5t-184.5 -7.5h-1086v1366h1313v-240h-999zM496 612v-372h733q148 0 197 38.5t49 155.5q0 108 -51 143t-207 35h-721z" />
    <glyph glyph-name="afii10019" unicode="&#x412;" horiz-adv-x="2015" 
d="M182 0v1366h1178q255 0 358 -79.5t103 -276.5q0 -191 -88 -248q-63 -42 -179 -57q87 -7 132.5 -19t87.5 -37q47 -28 72.5 -96.5t25.5 -165.5q0 -207 -105 -297t-348 -90h-1237zM492 805h745q162 0 209 24q59 35 59 132q0 106 -65 141q-45 26 -172 26h-776v-323zM492 238
h813q143 0 195 37.5t52 140.5q0 111 -63 149q-50 27 -205 27h-792v-354z" />
    <glyph glyph-name="afii10020" unicode="&#x413;" horiz-adv-x="1536" 
d="M182 1366h1313v-256h-997v-1110h-316v1366z" />
    <glyph glyph-name="afii10021" unicode="&#x414;" horiz-adv-x="2154" 
d="M2128 -272h-316v272h-1515v-272h-315v526h75q80 0 139 27.5t85 78.5q28 55 37.5 113.5t9.5 167.5v725h1601v-1112h199v-526zM1614 254v858h-971v-487q0 -274 -156 -371h1127z" />
    <glyph glyph-name="afii10022" unicode="&#x415;" horiz-adv-x="1771" 
d="M182 0v1366h1452v-240h-1140v-323h1085v-215h-1085v-348h1153v-240h-1465z" />
    <glyph glyph-name="afii10024" unicode="&#x416;" horiz-adv-x="2869" 
d="M1589 0h-311v569h-244l-606 -569h-444l782 694l-715 672h436l551 -545h240v545h311v-545h240l551 545h436l-715 -672l783 -694h-445l-606 569h-244v-569z" />
    <glyph glyph-name="afii10025" unicode="&#x417;" horiz-adv-x="1959" 
d="M848 797h401q149 0 201 28q74 43 74 136q0 97 -86 135q-37 17 -134.5 22.5t-326.5 5.5q-219 0 -308.5 -8t-140.5 -33q-29 -13 -43 -49t-20 -110l-2 -17h-301q3 166 38.5 260.5t110.5 137.5q78 43 227 58t494 15h41q239 0 351.5 -10.5t191.5 -40.5q117 -44 171 -121.5
t54 -201.5q0 -262 -252 -312q131 -32 191.5 -104.5t60.5 -196.5q0 -194 -143 -301q-40 -30 -108.5 -53.5t-141.5 -32.5q-132 -16 -483 -16q-259 0 -399 11t-217 36.5t-124 77.5q-46 51 -63 126t-17 230v23h306v-31q0 -99 35 -142.5t128 -60.5q93 -14 398 -14q270 0 362 14
q72 12 111 55t39 111q0 89 -66 129q-30 17 -73.5 23t-135.5 6h-401v215z" />
    <glyph glyph-name="afii10026" unicode="&#x418;" horiz-adv-x="2074" 
d="M182 1366h316v-1065l999 1065h393v-1366h-315v1065l-1000 -1065h-393v1366z" />
    <glyph glyph-name="afii10027" unicode="&#x419;" horiz-adv-x="2074" 
d="M182 1366h316v-1065l999 1065h393v-1366h-315v1065l-1000 -1065h-393v1366zM598 1784h209q6 -90 52 -121t173 -31q137 0 182 29t52 123h211q-10 -75 -27.5 -125t-48 -86t-81 -55.5t-117.5 -28t-167 -8.5t-167 8.5t-118 28t-80.5 55.5t-47 86t-25.5 125z" />
    <glyph glyph-name="afii10028" unicode="&#x41a;" horiz-adv-x="1943" 
d="M182 0v1366h316v-545h229l696 545h453l-868 -672l936 -694h-474l-749 569h-223v-569h-316z" />
    <glyph glyph-name="afii10029" unicode="&#x41b;" horiz-adv-x="2027" 
d="M1843 1366v-1366h-315v1112h-971v-485q0 -148 -17.5 -240.5t-60.5 -167.5q-67 -118 -175.5 -173.5t-270.5 -55.5h-23v248q128 0 185 104q26 44 36.5 107t10.5 176v741h1601z" />
    <glyph glyph-name="afii10030" unicode="&#x41c;" horiz-adv-x="2619" 
d="M182 0v1366h488l643 -1028l641 1028h481v-1366h-309l12 1124l-706 -1124h-248l-703 1124l8 -1124h-307z" />
    <glyph glyph-name="afii10031" unicode="&#x41d;" horiz-adv-x="2074" 
d="M182 0v1366h316v-543h1077v543h315v-1366h-315v569h-1077v-569h-316z" />
    <glyph glyph-name="afii10032" unicode="&#x41e;" horiz-adv-x="2121" 
d="M1149 1380q250 0 381.5 -11t206 -39t127.5 -85q83 -91 100 -289q8 -84 8 -288q0 -256 -29.5 -376.5t-107.5 -189.5q-57 -50 -139 -75.5t-211 -32.5q-132 -8 -504 -8q-315 0 -437.5 14t-209.5 61q-141 77 -168 279q-16 120 -16 387q0 239 27.5 353.5t101.5 179.5
q55 49 134.5 74t211.5 36q117 10 524 10zM1063 1122h-159.5t-125 -5t-101.5 -7.5t-73.5 -18.5t-56.5 -25.5t-34.5 -42t-25 -54.5t-10 -75.5t-6.5 -93v-118.5q0 -200 19.5 -281t76.5 -110q57 -31 148.5 -39t384.5 -8q263 0 358.5 14.5t136.5 60.5q35 38 48.5 118t13.5 253
q0 205 -14 269q-18 87 -83 120q-69 36 -266 41q-68 2 -231 2z" />
    <glyph glyph-name="afii10033" unicode="&#x41f;" horiz-adv-x="2074" 
d="M1890 1366v-1366h-315v1112h-1077v-1112h-316v1366h1708z" />
    <glyph glyph-name="afii10034" unicode="&#x420;" horiz-adv-x="1900" 
d="M182 0v1366h1067q229 0 314 -27q127 -38 178 -136t51 -304q0 -157 -27 -249t-90 -146q-54 -47 -141.5 -66.5t-247.5 -19.5h-790v-418h-314zM496 672h702q165 0 221 42.5t56 168.5q0 138 -52.5 183.5t-210.5 45.5h-716v-440z" />
    <glyph glyph-name="afii10035" unicode="&#x421;" horiz-adv-x="1990" 
d="M1540 492h305v-23q0 -146 -17.5 -226t-60.5 -126q-48 -54 -119 -80.5t-195 -37.5t-353 -11q-411 0 -543.5 13t-222.5 62q-115 63 -156 222q-28 109 -28 422q0 195 16 306.5t54.5 176.5t111.5 106q87 49 226 65.5t464 16.5q354 0 502.5 -25.5t214.5 -97.5q87 -93 90 -348
h-301q0 41 -2 67t-12 51t-22 38.5t-41 26.5t-60 18.5t-87.5 9.5t-115 5t-150.5 1q-242 0 -336 -8.5t-143 -34.5q-40 -21 -59.5 -61.5t-27 -118.5t-7.5 -231q0 -82 1.5 -133t10.5 -101t20 -76.5t38 -52t56 -35.5t82.5 -18.5t108 -10t142.5 -1.5l417 8q110 10 154.5 57.5
t44.5 153.5v31z" />
    <glyph glyph-name="afii10036" unicode="&#x422;" horiz-adv-x="1654" 
d="M670 0v1110h-643v256h1599v-256h-641v-1110h-315z" />
    <glyph glyph-name="afii10037" unicode="&#x423;" horiz-adv-x="1849" 
d="M930 616l526 750h399l-856 -1122q-58 -77 -91 -110.5t-89 -70.5q-112 -73 -360 -73h-53v248q27 -2 63 -2q99 0 155.5 23.5t100.5 84.5l29 39l-760 983h403z" />
    <glyph glyph-name="afii10038" unicode="&#x424;" horiz-adv-x="2471" 
d="M1391 1366v-123q339 0 459.5 -6.5t203.5 -28.5q109 -30 170 -88.5t88 -161t27 -274.5q0 -200 -34 -304.5t-118 -162.5q-55 -39 -136 -59t-222 -29q-106 -6 -438 -6v-123h-306v123q-338 0 -459 6.5t-204 28.5q-162 44 -223.5 157.5t-61.5 368.5q0 199 33.5 302t118.5 163
q55 40 135.5 59.5t222.5 28.5q106 6 438 6v123h306zM1085 360v646h-100q-99 0 -163.5 -1.5t-125 -8t-95 -15t-65.5 -27.5t-45 -40t-24.5 -58t-13 -76.5t-2.5 -99.5q0 -58 2.5 -96.5t13.5 -74.5t25.5 -57t44.5 -39.5t65 -27.5t93.5 -15.5t122.5 -8t159 -1.5h108zM1391 360
h108q95 0 159 1.5t122.5 8t93.5 15.5t65 27.5t44.5 39.5t25.5 57t13.5 74.5t2.5 96.5q0 60 -2.5 99.5t-13 76.5t-24.5 58t-45 40t-65.5 27.5t-95 15t-125 8t-163.5 1.5h-100v-646z" />
    <glyph glyph-name="afii10039" unicode="&#x425;" horiz-adv-x="1986" 
d="M23 0l710 698l-663 668h419l504 -518l506 518h414l-662 -664l715 -702h-430l-543 553l-544 -553h-426z" />
    <glyph glyph-name="afii10040" unicode="&#x426;" horiz-adv-x="2117" 
d="M1890 1366v-1112h199v-526h-315v272h-1592v1366h316v-1112h1077v1112h315z" />
    <glyph glyph-name="afii10041" unicode="&#x427;" horiz-adv-x="1994" 
d="M1497 0v569q-47 -135 -176 -186t-418 -51q-318 0 -463 32t-223 119q-84 90 -98 244q-2 35 -2 143v496h315v-453q0 -119 12.5 -164t55.5 -79q54 -44 161.5 -64t294.5 -20q211 0 326 30.5t165 101.5t50 200v448h315v-1366h-315z" />
    <glyph glyph-name="afii10042" unicode="&#x428;" horiz-adv-x="2797" 
d="M2613 1366v-1366h-2431v1366h316v-1112h741v1112h315v-1112h744v1112h315z" />
    <glyph glyph-name="afii10043" unicode="&#x429;" horiz-adv-x="2840" 
d="M2812 -272h-315v272h-2315v1366h316v-1112h741v1112h315v-1112h744v1112h315v-1112h199v-526z" />
    <glyph glyph-name="afii10044" unicode="&#x42a;" horiz-adv-x="2375" 
d="M0 1366h971v-451h807q102 0 173 -8.5t128 -30t91.5 -54.5t57 -87.5t31 -123.5t8.5 -167q0 -140 -24.5 -223.5t-81.5 -132.5q-57 -51 -145.5 -69.5t-274.5 -18.5h-1084v1110h-657v256zM971 662v-408h733q149 0 197.5 41.5t48.5 169.5q0 117 -52.5 157t-207.5 40h-719z" />
    <glyph glyph-name="afii10045" unicode="&#x42b;" horiz-adv-x="2465" 
d="M182 1366h314v-418h790q173 0 264.5 -23.5t145.5 -82.5q51 -55 73.5 -143.5t22.5 -231.5q0 -152 -25 -239t-84 -140q-58 -52 -147 -70t-287 -18h-1067v1366zM496 694v-440h716q158 0 210.5 45.5t52.5 183.5q0 126 -56 168.5t-221 42.5h-702zM1966 0v1366h315v-1366h-315z
" />
    <glyph glyph-name="afii10046" unicode="&#x42c;" horiz-adv-x="1900" 
d="M182 1366h314v-418h790q173 0 264.5 -23.5t145.5 -82.5q51 -55 73.5 -143.5t22.5 -231.5q0 -152 -25 -239t-84 -140q-58 -52 -147 -70t-287 -18h-1067v1366zM496 694v-440h716q158 0 210.5 45.5t52.5 183.5q0 126 -56 168.5t-221 42.5h-702z" />
    <glyph glyph-name="afii10047" unicode="&#x42d;" horiz-adv-x="1990" 
d="M848 797h676q-3 109 -20.5 170t-57.5 96q-41 37 -138 49t-354 12q-328 0 -399 -28q-48 -19 -66 -53t-24 -119l-2 -17h-301q3 278 108 367q68 60 215.5 82t485.5 22q324 0 462.5 -16.5t225.5 -65.5q73 -41 111.5 -106t54.5 -177t16 -308q0 -227 -14.5 -340.5t-54.5 -186.5
q-76 -139 -281 -170q-85 -12 -204.5 -16t-395.5 -4q-333 0 -465.5 25.5t-202.5 103.5q-43 46 -60.5 126t-17.5 226v23h306v-31q0 -137 69 -172q51 -28 143.5 -36.5t335.5 -8.5q241 0 329.5 13.5t127.5 57.5q32 35 47 93t21 174h-676v215z" />
    <glyph glyph-name="afii10048" unicode="&#x42e;" horiz-adv-x="2842" 
d="M498 823h374q3 190 36.5 291t115.5 166q102 77 352 94q102 6 455 6q337 0 464.5 -13.5t213.5 -59.5q68 -37 112.5 -111.5t57.5 -175.5q14 -100 14 -356q0 -253 -29.5 -373t-107.5 -189q-57 -50 -138.5 -75.5t-211.5 -32.5q-156 -8 -504 -8q-268 0 -404.5 13t-212.5 46.5
t-129 104.5q-43 57 -63 155.5t-21 263.5h-374v-569h-316v1366h316v-543zM1784 1122h-195t-142.5 -9t-108 -14.5t-68 -35t-47 -51t-19.5 -81t-12 -106.5v-145q0 -199 19.5 -279.5t76.5 -111.5q57 -29 149.5 -37t383.5 -8q263 0 358.5 14.5t136.5 60.5q35 38 48.5 117.5
t13.5 251.5q0 206 -14 270q-18 88 -83 121q-69 36 -266 41q-68 2 -231 2z" />
    <glyph glyph-name="afii10049" unicode="&#x42f;" horiz-adv-x="2013" 
d="M1831 0h-313v426h-760q-54 0 -91.5 -3.5t-67 -13.5t-47 -25t-29 -41t-15.5 -58.5t-4 -79.5v-205h-318v270q0 204 144 258q46 17 184 27q-133 17 -193 40.5t-94 70.5q-63 84 -63 264q0 130 25.5 213.5t82.5 134.5q54 48 145.5 68t256.5 20h1157v-1366zM1518 678v432h-756
q-90 0 -142 -8.5t-84.5 -34.5t-43.5 -67.5t-11 -114.5q0 -126 56.5 -166.5t230.5 -40.5h750z" />
    <glyph glyph-name="afii10065" unicode="&#x430;" horiz-adv-x="1517" 
d="M430 682h-272q3 80 22.5 127t63.5 82q63 51 165 69.5t312 18.5q278 0 394 -22t175 -87q43 -47 57.5 -103t14.5 -173v-594h-270v154q-26 -100 -115.5 -136t-312.5 -36q-195 0 -290.5 11t-146.5 40q-58 32 -85 92t-27 156q0 51 5 89.5t18 71.5t33 55.5t53.5 41t75 29
t102 18t130.5 10t164 2.5q105 0 170.5 -5.5t111.5 -20t69.5 -37.5t39.5 -62v105q0 52 -3.5 84t-17.5 59t-34 40t-61 22t-89.5 11.5t-127.5 2.5q-146 0 -207.5 -8t-86.5 -30.5t-30 -76.5zM727 432q-221 0 -291 -33q-25 -10 -39 -38.5t-14 -65.5q0 -57 30 -87t99 -40
q50 -6 231 -6q145 0 216.5 11.5t101 41t29.5 88.5q0 77 -52 96q-73 33 -311 33z" />
    <glyph glyph-name="afii10066" unicode="&#x431;" horiz-adv-x="1562" 
d="M1188 1389v-195h-492q-107 0 -169.5 -26t-96.5 -85q-22 -39 -29.5 -90t-7.5 -172h4q56 94 134 126t253 32q250 0 380 -27.5t194 -95.5q46 -47 65 -129t19 -231q0 -180 -23.5 -271.5t-83.5 -140.5q-67 -57 -190 -79.5t-359 -22.5q-204 0 -315.5 15.5t-175.5 53.5
q-100 58 -145 187q-29 86 -29 340q0 302 14 422t58 202q54 103 166.5 145t330.5 42h498zM821 774q-180 0 -259 -14.5t-113 -54.5q-29 -32 -41.5 -84.5t-12.5 -143.5q0 -65 5 -108t20.5 -77.5t39 -53.5t66 -31.5t94.5 -16.5t132 -4q267 0 331 37q47 28 66.5 83.5t19.5 164.5
q0 68 -5 112.5t-20 80.5t-37.5 55.5t-64 33t-92.5 17.5t-129 4z" />
    <glyph glyph-name="afii10067" unicode="&#x432;" horiz-adv-x="1513" 
d="M156 0v961h929q161 0 233.5 -57t72.5 -183q0 -90 -41 -141.5t-129 -71.5v-2q104 -25 149 -79t45 -157q0 -142 -72.5 -206t-232.5 -64h-954zM426 184h563q91 0 125.5 24.5t34.5 88.5q0 63 -34 88t-122 25h-567v-226zM426 584h549q89 0 121 21t32 79q0 54 -29.5 73
t-111.5 19h-561v-192z" />
    <glyph glyph-name="afii10068" unicode="&#x433;" horiz-adv-x="1157" 
d="M426 768v-768h-270v961h979v-193h-709z" />
    <glyph glyph-name="afii10069" unicode="&#x434;" horiz-adv-x="1605" 
d="M268 961h1151v-768h166v-412h-270v219h-1028v-219h-271v412h88q42 0 79 19t55 52q30 48 30 185v512zM408 193h741v575h-610v-260q0 -126 -30 -198.5t-101 -116.5z" />
    <glyph glyph-name="afii10070" unicode="&#x435;" horiz-adv-x="1503" 
d="M1386 428h-989q0 -158 58 -213t354 -55q170 0 235 29t74 110h266q-6 -151 -92 -223q-63 -51 -175.5 -71.5t-325.5 -20.5q-353 0 -467 51q-111 51 -157 150t-46 290q0 155 27.5 248.5t89.5 150.5q64 60 178.5 81.5t365.5 21.5q231 0 340.5 -25.5t171.5 -93.5
q51 -59 71.5 -139.5t20.5 -226.5v-64zM397 588h721q0 74 -24 121q-21 41 -54 57q-82 35 -239 35t-219.5 -7t-104.5 -30q-80 -45 -80 -164v-12z" />
    <glyph glyph-name="afii10072" unicode="&#x436;" horiz-adv-x="2136" 
d="M1202 0h-268v391h-143l-445 -391h-371l590 502l-518 459h373l385 -371h129v371h268v-371h129l385 371h373l-518 -459l590 -502h-371l-444 391h-144v-391z" />
    <glyph glyph-name="afii10073" unicode="&#x437;" horiz-adv-x="1503" 
d="M399 606h-278q3 97 22.5 156.5t63.5 103.5q68 66 200 89.5t447 23.5q296 0 417.5 -62.5t121.5 -214.5q0 -174 -189 -208q100 -23 144.5 -75t44.5 -147q0 -73 -30.5 -130t-86.5 -89q-70 -40 -178 -55.5t-307 -15.5q-266 0 -395 24.5t-195 87.5q-92 89 -92 271h278
q4 -70 33 -107.5t92 -54.5q70 -17 293 -17q174 0 241.5 25.5t67.5 91.5q0 96 -141 96h-289v183h289q74 0 107.5 21.5t33.5 68.5q0 63 -59 82.5t-246 19.5q-190 0 -264.5 -12.5t-108.5 -50.5q-31 -34 -37 -105z" />
    <glyph glyph-name="afii10074" unicode="&#x438;" horiz-adv-x="1556" 
d="M1130 0v709l-661 -709h-313v961h270v-709l661 709h314v-961h-271z" />
    <glyph glyph-name="afii10075" unicode="&#x439;" horiz-adv-x="1556" 
d="M1130 0v709l-661 -709h-313v961h270v-709l661 709h314v-961h-271zM408 1386h186q4 -92 41.5 -121.5t148.5 -29.5q113 0 151 29.5t42 121.5h188q-20 -177 -96 -235.5t-283 -58.5q-108 0 -173.5 12t-110 47t-64.5 89t-30 146z" />
    <glyph glyph-name="afii10076" unicode="&#x43a;" horiz-adv-x="1390" 
d="M156 0v961h270v-371h84l444 371h381l-577 -457l649 -504h-383l-506 391h-92v-391h-270z" />
    <glyph glyph-name="afii10077" unicode="&#x43b;" horiz-adv-x="1486" 
d="M1061 768h-610v-264q0 -230 -62 -342q-44 -81 -138.5 -127.5t-199.5 -40.5h-4h-31v188q99 6 136 76q17 32 22.5 67t5.5 111v525h1151v-961h-270v768z" />
    <glyph glyph-name="afii10078" unicode="&#x43c;" horiz-adv-x="1796" 
d="M1004 0h-211l-371 725v-725h-266v961h376l367 -736l365 736h376v-961h-266v725z" />
    <glyph glyph-name="afii10079" unicode="&#x43d;" horiz-adv-x="1556" 
d="M426 393v-393h-270v961h270v-375h704v375h271v-961h-271v393h-704z" />
    <glyph glyph-name="afii10080" unicode="&#x43e;" horiz-adv-x="1562" 
d="M774 979q254 0 381.5 -25t194.5 -88q54 -51 74 -136.5t20 -266.5q0 -127 -23 -224t-63 -137q-57 -57 -144 -82q-56 -17 -183 -27.5t-267 -10.5q-143 0 -237.5 7t-171 29t-118.5 54.5t-70 92t-37 133t-9 185.5q0 163 23 251t79 138q55 49 146 72q54 14 178 24.5t227 10.5z
M821 774q-180 0 -259 -14.5t-113 -54.5q-29 -32 -41.5 -84.5t-12.5 -143.5q0 -65 5 -108t20.5 -77.5t39 -53.5t66 -31.5t94.5 -16.5t132 -4q267 0 331 37q47 28 66.5 83.5t19.5 164.5q0 68 -5 112.5t-20 80.5t-37.5 55.5t-64 33t-92.5 17.5t-129 4z" />
    <glyph glyph-name="afii10081" unicode="&#x43f;" horiz-adv-x="1556" 
d="M426 768v-768h-270v961h1245v-961h-271v768h-704z" />
    <glyph glyph-name="afii10082" unicode="&#x440;" horiz-adv-x="1599" 
d="M156 961h270v-179q35 117 125.5 157t316.5 40q221 0 343.5 -28.5t183.5 -94.5q86 -96 86 -375q0 -105 -10 -178.5t-37 -131t-67.5 -92.5t-108.5 -57.5t-153 -31t-208 -8.5q-232 0 -336 40.5t-135 141.5v-578h-270v1375zM645 199l225 -9q74 0 122.5 4t88 17t61 32.5
t36.5 55t19.5 79.5t4.5 111q0 91 -14.5 144.5t-48.5 85.5q-40 37 -127 47l-238 8q-79 0 -130 -4t-92.5 -17t-64 -32.5t-37.5 -56t-19.5 -81.5t-4.5 -114q0 -195 84 -238q59 -32 135 -32z" />
    <glyph glyph-name="afii10083" unicode="&#x441;" horiz-adv-x="1515" 
d="M1126 365h281q-2 -92 -22.5 -155t-61.5 -108.5t-114 -71t-172 -37t-244 -11.5q-201 0 -319.5 16t-184.5 53q-89 49 -128.5 150t-39.5 278q0 176 39 278.5t125 149.5q129 72 487 72q149 0 249.5 -11t174 -35t114.5 -68.5t61 -106t22 -152.5h-277v8q3 35 -17.5 69.5
t-54.5 55.5q-60 35 -278 35q-147 0 -214 -14.5t-101 -54.5q-56 -65 -56 -226q0 -175 68 -237q34 -32 105.5 -44t236.5 -12q178 0 246.5 38.5t74.5 140.5z" />
    <glyph glyph-name="afii10084" unicode="&#x442;" horiz-adv-x="1159" 
d="M444 768h-426v193h1121v-193h-424v-768h-271v768z" />
    <glyph glyph-name="afii10085" unicode="&#x443;" horiz-adv-x="1345" 
d="M14 961h297l363 -775l358 775h297l-536 -1111q-46 -96 -71.5 -138t-59.5 -74q-90 -87 -297 -87q-31 0 -113 7v190q20 -2 43 -2q79 0 123.5 14.5t76.5 51t68 112.5l37 76h-113z" />
    <glyph glyph-name="afii10086" unicode="&#x444;" horiz-adv-x="2232" 
d="M1249 -414h-266v576q-46 -101 -127.5 -140.5t-243.5 -39.5q-151 0 -242 21.5t-149 80t-79 151.5t-21 246q0 102 8.5 175t30 130.5t55 93t87.5 58.5t122.5 32t165.5 9q190 0 274.5 -41t118.5 -150v582h266v-582q34 109 118.5 150t274.5 41q97 0 165.5 -9t122.5 -32
t87.5 -58.5t55 -93t30 -130.5t8.5 -175q0 -153 -21 -246t-79 -151.5t-149 -80t-242 -21.5q-162 0 -243.5 39.5t-127.5 140.5v-576zM670 776q-89 0 -140 -11t-83 -44.5t-43 -87t-11 -146.5q0 -68 4 -112t16.5 -80t31.5 -55.5t54 -32.5t78.5 -17t110.5 -4q177 0 237 61t60 240
q0 196 -74 250q-51 39 -241 39zM1563 776q-194 0 -246 -41q-68 -56 -68 -248q0 -178 60 -239.5t235 -61.5q67 0 110.5 4t78.5 17t54 32t31.5 55t16.5 80t4 113q0 93 -10.5 146t-43 87t-83 45t-139.5 11z" />
    <glyph glyph-name="afii10087" unicode="&#x445;" horiz-adv-x="1413" 
d="M31 0l469 504l-424 457h354l272 -314l279 314h348l-418 -447l471 -514h-348l-332 377l-329 -377h-342z" />
    <glyph glyph-name="afii10088" unicode="&#x446;" horiz-adv-x="1587" 
d="M1401 961v-768h164v-412h-271v219h-1138v961h270v-768h704v768h271z" />
    <glyph glyph-name="afii10089" unicode="&#x447;" horiz-adv-x="1515" 
d="M1360 961v-961h-264v465q-31 -94 -82 -143.5t-140 -70t-245 -20.5q-170 0 -270 28.5t-160 94.5q-46 51 -65 122.5t-19 191.5v293h270v-281q0 -70 14 -113t52.5 -69.5t98.5 -36.5t159 -10q214 0 297.5 60.5t83.5 217.5v232h270z" />
    <glyph glyph-name="afii10090" unicode="&#x448;" horiz-adv-x="2082" 
d="M1927 961v-961h-1771v961h270v-768h481v768h271v-768h479v768h270z" />
    <glyph glyph-name="afii10091" unicode="&#x449;" horiz-adv-x="2113" 
d="M2091 -219h-270v219h-1665v961h270v-768h481v768h271v-768h479v768h270v-768h164v-412z" />
    <glyph glyph-name="afii10092" unicode="&#x44a;" horiz-adv-x="1779" 
d="M8 961h735v-306h609q202 0 283 -71t81 -250q0 -182 -88 -264q-41 -40 -104 -55t-189 -15h-862v768h-465v193zM743 188h514q120 0 157.5 26.5t37.5 111.5q0 94 -51 123q-30 18 -144 18h-514v-279z" />
    <glyph glyph-name="afii10093" unicode="&#x44b;" horiz-adv-x="1970" 
d="M156 0v961h270v-306h608q203 0 284 -71.5t81 -249.5q0 -182 -88 -264q-43 -40 -105.5 -55t-187.5 -15h-862zM426 188h514q120 0 157.5 26.5t37.5 111.5q0 93 -52 123q-30 18 -143 18h-514v-279zM1544 0v961h271v-961h-271z" />
    <glyph glyph-name="afii10094" unicode="&#x44c;" horiz-adv-x="1462" 
d="M156 0v961h270v-306h608q203 0 284 -71.5t81 -249.5q0 -182 -88 -264q-43 -40 -105.5 -55t-187.5 -15h-862zM426 188h514q120 0 157.5 26.5t37.5 111.5q0 93 -52 123q-30 18 -143 18h-514v-279z" />
    <glyph glyph-name="afii10095" unicode="&#x44d;" horiz-adv-x="1515" 
d="M684 582h426q-11 61 -28.5 97t-56.5 58t-95.5 29.5t-151.5 7.5q-157 0 -233.5 -13.5t-109 -48t-36.5 -106.5h-278q2 76 15 130.5t43 97t74.5 69.5t115 44.5t159.5 24.5t213 7q364 0 488 -72q86 -47 125 -149.5t39 -278.5q0 -177 -39.5 -277t-128.5 -151
q-66 -37 -184.5 -53t-321.5 -16q-205 0 -324.5 23.5t-181.5 76.5q-55 47 -79.5 114.5t-24.5 168.5h280q6 -106 76.5 -142.5t271.5 -36.5q151 0 215 11.5t97 44.5q49 46 65 157h-430v183z" />
    <glyph glyph-name="afii10096" unicode="&#x44e;" horiz-adv-x="2119" 
d="M680 393h-254v-393h-270v961h270v-375h254q7 131 41.5 204.5t103.5 112.5q75 41 197 58.5t336 17.5q238 0 366 -28.5t193 -94.5q45 -48 64.5 -131t19.5 -229q0 -179 -24 -270.5t-83 -141.5q-61 -49 -122 -64q-56 -17 -182 -27.5t-265 -10.5q-245 0 -369.5 26t-187.5 90
q-85 82 -88 295zM1378 774q-180 0 -259 -14.5t-113 -54.5q-29 -32 -41.5 -84.5t-12.5 -143.5q0 -65 5 -108t20.5 -77.5t39 -53.5t66.5 -31.5t95.5 -16.5t132.5 -4q146 0 220 8.5t109 28.5q47 28 66.5 83.5t19.5 164.5q0 68 -5 112.5t-20 80.5t-37.5 55.5t-64 33t-92.5 17.5
t-129 4z" />
    <glyph glyph-name="afii10097" unicode="&#x44f;" horiz-adv-x="1511" 
d="M1356 0h-271v322h-522q-101 0 -139.5 -36t-38.5 -130v-156h-270v190q0 104 44 156t150 72v4q-102 22 -149 81t-47 165q0 155 79.5 224t258.5 69h905v-961zM1085 772h-540q-96 0 -132 -27.5t-36 -99.5q0 -78 35.5 -106.5t130.5 -28.5h542v262z" />
    <glyph glyph-name="afii10071" unicode="&#x451;" horiz-adv-x="1503" 
d="M1386 428h-989q0 -158 58 -213t354 -55q170 0 235 29t74 110h266q-6 -151 -92 -223q-63 -51 -175.5 -71.5t-325.5 -20.5q-353 0 -467 51q-111 51 -157 150t-46 290q0 155 27.5 248.5t89.5 150.5q64 60 178.5 81.5t365.5 21.5q231 0 340.5 -25.5t171.5 -93.5
q51 -59 71.5 -139.5t20.5 -226.5v-64zM397 588h721q0 74 -24 121q-21 41 -54 57q-82 35 -239 35t-219.5 -7t-104.5 -30q-80 -45 -80 -164v-12zM395 1139v180h283v-180h-283zM850 1139v180h283v-180h-283z" />
    <glyph glyph-name="afii10099" unicode="&#x452;" horiz-adv-x="1556" 
d="M156 0v1098h-156v145h156v127h270v-127h334v-145h-334v-320q30 81 80 123.5t136 61t235 18.5q295 0 409.5 -94t114.5 -336v-965h-271v932q0 87 -11 127t-42 68q-63 55 -268 55q-219 0 -301 -57.5t-82 -210.5v-500h-270z" />
    <glyph glyph-name="afii10100" unicode="&#x453;" horiz-adv-x="1157" 
d="M426 768v-768h-270v961h979v-193h-709zM492 1098l-41 114l438 215l65 -184z" />
    <glyph glyph-name="afii10101" unicode="&#x454;" horiz-adv-x="1515" 
d="M403 582h426v-183h-430q15 -120 76 -168q32 -26 95 -35.5t206 -9.5q136 0 208.5 16t104.5 54t35 109h281q-3 -115 -32 -186.5t-101.5 -116.5t-185 -62.5t-293.5 -17.5q-201 0 -319.5 16t-184.5 53q-89 49 -128.5 150t-39.5 278q0 176 39 278.5t125 149.5q124 72 487 72
q149 0 249.5 -11t174 -35t114.5 -68.5t61 -106t22 -152.5h-279q-4 72 -36.5 106.5t-109 48t-233.5 13.5q-95 0 -151.5 -7.5t-95.5 -29.5t-56.5 -58t-28.5 -97z" />
    <glyph glyph-name="afii10102" unicode="&#x455;" horiz-adv-x="1505" 
d="M1071 692v8q0 41 -28.5 61.5t-99 29t-212.5 8.5q-130 0 -200.5 -10.5t-100 -35t-29.5 -69.5q0 -43 24 -62t87.5 -26.5t204.5 -7.5h149q188 0 277 -12t149 -46q103 -57 103 -229q0 -132 -50 -198.5t-171 -94.5q-118 -26 -484 -26q-249 0 -355.5 21.5t-160.5 82.5
q-35 38 -49 86t-14 125v10h282v-10q0 -31 5.5 -51t22.5 -36t42 -24.5t72 -14.5t103.5 -7.5t145.5 -1.5q139 0 208.5 10t97.5 34.5t28 72.5q0 49 -24.5 72.5t-86.5 32.5t-186 7q-173 -4 -377 4q-178 12 -249.5 73.5t-71.5 201.5q0 125 49 189.5t164 90.5q139 29 416 29
q223 0 327.5 -13t169.5 -48q103 -56 103 -220v-6h-281z" />
    <glyph glyph-name="afii10103" unicode="&#x456;" horiz-adv-x="581" 
d="M156 0v961h270v-961h-270zM156 1145v225h270v-225h-270z" />
    <glyph glyph-name="afii10104" unicode="&#x457;" horiz-adv-x="581" 
d="M156 0v961h270v-961h-270zM0 1139v180h244v-180h-244zM340 1139v180h244v-180h-244z" />
    <glyph glyph-name="afii10105" unicode="&#x458;" horiz-adv-x="630" 
d="M37 -352v186q27 -4 51 -4q69 0 98 47q12 19 15.5 41.5t3.5 85.5v957h270v-928q0 -152 -4.5 -195t-26.5 -78q-33 -57 -111.5 -86.5t-189.5 -29.5q-55 0 -106 4zM205 1145v225h270v-225h-270z" />
    <glyph glyph-name="afii10106" unicode="&#x459;" horiz-adv-x="2285" 
d="M1290 961v-306h568q202 0 283 -71t81 -250q0 -182 -88 -264q-43 -40 -105.5 -55t-187.5 -15h-821v768h-569v-264q0 -231 -60 -342q-47 -82 -135 -125t-205 -43h-35v188q92 4 128 59.5t36 192.5v527h1110zM1290 188h473q120 0 157.5 26.5t37.5 111.5q0 97 -51 123
q-30 18 -144 18h-473v-279z" />
    <glyph glyph-name="afii10107" unicode="&#x45a;" horiz-adv-x="2355" 
d="M1090 436h-664v-436h-270v961h270v-336h664v336h270v-336h575q199 0 278 -69.5t79 -244.5q0 -165 -84 -243q-42 -39 -103.5 -53.5t-185.5 -14.5h-829v436zM1360 188h489q104 0 141.5 25.5t37.5 97.5q0 75 -36 100t-143 25h-489v-248z" />
    <glyph glyph-name="afii10108" unicode="&#x45b;" horiz-adv-x="1556" 
d="M156 0v1098h-156v145h156v127h270v-127h334v-145h-334v-320q30 81 80 123.5t136 61t235 18.5q295 0 409.5 -94t114.5 -336v-551h-271v518q0 87 -11 127t-42 68q-63 55 -268 55q-219 0 -301 -57.5t-82 -210.5v-500h-270z" />
    <glyph glyph-name="afii10109" unicode="&#x45c;" horiz-adv-x="1390" 
d="M156 0v961h270v-371h84l444 371h381l-577 -457l649 -504h-383l-506 391h-92v-391h-270zM557 1098l-39 114l436 215l68 -184z" />
    <glyph glyph-name="afii10110" unicode="&#x45e;" horiz-adv-x="1345" 
d="M14 961h297l363 -775l358 775h297l-536 -1111q-46 -96 -71.5 -138t-59.5 -74q-90 -87 -297 -87q-31 0 -113 7v190q20 -2 43 -2q79 0 123.5 14.5t76.5 51t68 112.5l37 76h-113zM303 1386h186q4 -92 42 -121.5t149 -29.5q113 0 149.5 28.5t42.5 122.5h189
q-20 -177 -96 -235.5t-283 -58.5q-143 0 -218.5 25t-111.5 86.5t-49 182.5z" />
    <glyph glyph-name="afii10193" unicode="&#x45f;" horiz-adv-x="1556" 
d="M913 0v-219h-270v219h-487v961h270v-768h704v768h271v-961h-488z" />
    <glyph glyph-name="afii10050" unicode="&#x490;" horiz-adv-x="1536" 
d="M1495 1501v-391h-997v-1110h-316v1366h998v135h315z" />
    <glyph glyph-name="afii10098" unicode="&#x491;" horiz-adv-x="1157" 
d="M1135 1065v-297h-709v-768h-270v961h708v104h271z" />
    <glyph glyph-name="uni0492" unicode="&#x492;" horiz-adv-x="1667" 
d="M184 0v537h-174v237h174v592h1391v-240h-1077v-352h520v-237h-520v-537h-314z" />
    <glyph glyph-name="uni0493" unicode="&#x493;" horiz-adv-x="1157" 
d="M156 571v390h979v-193h-709v-197h293v-182h-293v-389h-270v389h-133v182h133z" />
    <glyph glyph-name="uni0496" unicode="&#x496;" horiz-adv-x="2869" 
d="M2546 0h-105l-608 569h-244v-569h-311v569h-244l-606 -569h-444l782 694l-715 672h436l551 -545h240v545h311v-545h240l551 545h436l-715 -672l514 -440h246v-526h-315v272z" />
    <glyph glyph-name="uni0497" unicode="&#x497;" horiz-adv-x="2134" 
d="M1882 0h-92l-444 391h-144v-391h-268v391h-143l-445 -391h-371l590 502l-518 459h373l385 -371h129v371h268v-371h129l385 371h373l-518 -459l366 -305h215v-412h-270v215z" />
    <glyph glyph-name="uni049A" unicode="&#x49a;" horiz-adv-x="1943" 
d="M1942 -272h-316v272h-156l-749 569h-223v-569h-316v1366h316v-545h229l694 545h455l-868 -672l616 -446h318v-520z" />
    <glyph glyph-name="uni049B" unicode="&#x49b;" horiz-adv-x="1390" 
d="M1378 -217h-270v217h-84l-506 391h-92v-391h-270v961h270v-371h84l442 371h381l-577 -457l409 -309h213v-412z" />
    <glyph glyph-name="uni049C" unicode="&#x49c;" horiz-adv-x="1943" 
d="M627 821v322h182v-246l614 469h453l-870 -672l936 -694h-472l-661 494v-236h-182v311h-129v-569h-316v1366h316v-545h129z" />
    <glyph glyph-name="uni049D" unicode="&#x49d;" horiz-adv-x="1390" 
d="M510 895h182v-209l334 275h309l-577 -457l649 -504h-381l-334 246v-150h-182v293l-4 2h-80v-391h-270v961h270v-371h80l4 2v303z" />
    <glyph glyph-name="uni04A2" unicode="&#x4a2;" horiz-adv-x="2074" 
d="M2073 -272h-318v272h-180v569h-1077v-569h-316v1366h316v-543h1077v543h315v-1112h183v-526z" />
    <glyph glyph-name="uni04A3" unicode="&#x4a3;" horiz-adv-x="1556" 
d="M1331 0h-201v393h-704v-393h-270v961h270v-375h704v375h271v-768h201v-412h-271v219z" />
    <glyph glyph-name="uni04AE" unicode="&#x4ae;" horiz-adv-x="1880" 
d="M944 764l533 602h401l-778 -852v-514h-316v514l-784 852h408z" />
    <glyph glyph-name="uni04AF" unicode="&#x4af;" horiz-adv-x="1345" 
d="M598 -457v457h-109l-475 961h299l361 -775l360 775h297l-463 -961v-457h-270z" />
    <glyph glyph-name="uni04B0" unicode="&#x4b0;" horiz-adv-x="1880" 
d="M1100 399h266v-182h-266v-217h-316v217h-258v182h258v115l-784 852h410l534 -602l537 602h399l-780 -852v-115z" />
    <glyph glyph-name="uni04B1" unicode="&#x4b1;" horiz-adv-x="1345" 
d="M598 -68v68h-109l-475 961h299l361 -775l358 775h299l-463 -961v-68h271v-182h-271v-207h-270v207h-268v182h268z" />
    <glyph glyph-name="uni04B2" unicode="&#x4b2;" horiz-adv-x="1986" 
d="M1974 -272h-315v272h-123l-543 553l-544 -553h-426l710 698l-663 668h419l504 -518l508 518h412l-662 -664l457 -446h266v-528z" />
    <glyph glyph-name="uni04B3" unicode="&#x4b3;" horiz-adv-x="1413" 
d="M1421 -219h-270v219h-117l-332 377l-329 -377h-342l469 504l-424 457h354l272 -314l279 314h348l-418 -447l299 -321h211v-412z" />
    <glyph glyph-name="uni04B8" unicode="&#x4b8;" horiz-adv-x="1994" 
d="M1028 338v-242h-182v236q-249 6 -357 23t-192 63q-153 87 -174 274q-6 53 -6 176v498h315v-453q0 -136 18 -189t76 -85q46 -28 117.5 -39.5t202.5 -13.5v295h182v-295h33q204 0 309 57q69 40 98 101.5t29 170.5v451h315v-1366h-315v569q-41 -117 -150.5 -171t-318.5 -60z
" />
    <glyph glyph-name="uni04B9" unicode="&#x4b9;" horiz-adv-x="1515" 
d="M817 248v-195h-182v178h-6h-21q-298 0 -409 123q-46 53 -65 123.5t-19 190.5v293h270v-281q0 -122 54 -170.5t196 -54.5v219h182v-217q139 9 206 76t67 198v230h270v-961h-264v465q-35 -103 -91.5 -147t-187.5 -70z" />
    <glyph glyph-name="uni04BA" unicode="&#x4ba;" horiz-adv-x="1994" 
d="M432 1366v-569q31 90 97.5 141t184 73.5t312.5 22.5q318 0 463 -32t223 -119q85 -90 96 -244q4 -35 4 -143v-496h-315v453q0 118 -12.5 163.5t-54.5 79.5q-54 44 -162 64t-295 20q-159 0 -260 -15.5t-165.5 -55t-90 -101.5t-25.5 -159v-449h-315v1366h315z" />
    <glyph glyph-name="uni04BB" unicode="&#x4bb;" horiz-adv-x="1556" 
d="M156 0v1370h270v-592q29 80 79.5 122.5t137 60.5t236.5 18q294 0 408 -93.5t114 -334.5v-551h-271v518q0 86 -11 126.5t-42 66.5q-63 55 -266 55q-220 0 -302.5 -57t-82.5 -209v-500h-270z" />
    <glyph glyph-name="uni04C0" unicode="&#x4c0;" horiz-adv-x="681" 
d="M182 0v1366h316v-1366h-316z" />
    <glyph glyph-name="uni04CF" unicode="&#x4cf;" horiz-adv-x="681" 
d="M182 0v1366h316v-1366h-316z" />
    <glyph glyph-name="uni04D8" unicode="&#x4d8;" horiz-adv-x="2121" 
d="M150 754h1505q-5 149 -19.5 212t-52.5 95q-46 38 -145 49.5t-387 11.5q-266 0 -370 -13.5t-144 -51.5q-44 -44 -56 -129h-325q15 285 182 372q89 49 225.5 64.5t478.5 15.5q307 0 431.5 -5.5t195.5 -22.5q120 -31 186.5 -99t94.5 -188q13 -60 17.5 -142.5t4.5 -258.5
q0 -257 -29 -375t-108 -187q-57 -49 -137.5 -74t-208.5 -34q-132 -8 -510 -8q-311 0 -438.5 14.5t-206.5 60.5q-74 42 -110 105.5t-58 187.5q-21 133 -21 264q0 14 1 34t2 49.5t2 52.5zM1653 571h-1180q8 -132 33 -196t80 -90q52 -26 135.5 -33.5t322.5 -7.5
q141 0 222.5 2.5t146 7.5t97.5 18t54.5 30.5t39.5 47.5q38 56 49 221z" />
    <glyph glyph-name="afii10846" unicode="&#x4d9;" horiz-adv-x="1503" 
d="M121 532h989q0 159 -57 216q-59 53 -355 53q-171 0 -235.5 -29t-73.5 -110h-266q6 151 92 223q63 51 176.5 71.5t329.5 20.5q254 0 379.5 -27.5t189.5 -97.5q51 -54 73.5 -141t22.5 -226q0 -155 -27 -247.5t-89 -151.5q-64 -60 -179 -81t-368 -21q-230 0 -339 25t-171 93
q-51 59 -71.5 140t-20.5 227v63zM1110 373h-721q0 -72 25 -121q21 -41 53 -57q82 -35 242 -35q156 0 217.5 7t103.5 30q80 45 80 163v13z" />
    <glyph glyph-name="uni04E8" unicode="&#x4e8;" horiz-adv-x="2121" 
d="M977 1380q343 0 483.5 -6t208.5 -24q121 -29 188 -97t93 -190q22 -110 22 -399q0 -257 -29 -375t-108 -187q-57 -49 -137.5 -74t-210.5 -34q-126 -8 -506 -8q-314 0 -437 14t-210 61q-141 77 -168 277q-16 120 -16 387q0 221 21.5 330.5t78.5 173.5q79 91 224.5 121
t502.5 30zM471 764h1184q-7 154 -21 208.5t-53 88.5q-46 38 -146 49.5t-397 11.5q-203 0 -301.5 -8t-146 -28t-74.5 -64q-40 -67 -45 -258zM1653 582h-1180q6 -130 22 -186.5t56 -90.5q46 -40 136.5 -50.5t375.5 -10.5q217 0 317 7.5t148.5 28t77.5 66.5q41 67 47 236z" />
    <glyph glyph-name="uni04E9" unicode="&#x4e9;" horiz-adv-x="1562" 
d="M801 979q242 0 368.5 -28t190.5 -95q45 -48 64.5 -129.5t19.5 -224.5q0 -190 -25.5 -282.5t-91.5 -143.5q-68 -51 -194.5 -72.5t-362.5 -21.5q-145 0 -240.5 7t-172.5 29t-119.5 54.5t-70.5 92.5t-37 133.5t-9 186.5q0 82 5.5 141.5t20.5 111.5t37.5 87t61.5 63.5
t87 44.5t119.5 27t153.5 15t195 4zM1165 381h-766q16 -101 72 -145q34 -28 112.5 -39t245.5 -11q133 0 198 18t97 64q32 43 41 113zM399 563h766q-3 69 -35 125q-31 49 -98.5 68.5t-206.5 19.5q-182 0 -258.5 -13t-111.5 -48q-50 -53 -56 -152z" />
    <glyph glyph-name="Wacute" unicode="&#x1e82;" horiz-adv-x="901" 
d="M100 643h699v-264h-699v264z" />
    <glyph glyph-name="Wdieresis" unicode="&#x1e84;" horiz-adv-x="2897" 
d="M29 1366h325l465 -1110l443 1110h376l437 -1110l473 1110h323l-598 -1366h-415l-410 1073l-418 -1073h-414zM1018 1522v200h330v-200h-330zM1552 1522v200h330v-200h-330z" />
    <glyph glyph-name="uni2002" unicode="&#x2002;" 
 />
    <glyph glyph-name="uni2003" unicode="&#x2003;" horiz-adv-x="2048" 
 />
    <glyph glyph-name="uni2007" unicode="&#x2007;" horiz-adv-x="1951" 
 />
    <glyph glyph-name="uni2009" unicode="&#x2009;" horiz-adv-x="256" 
 />
    <glyph glyph-name="uni2011" unicode="&#x2011;" horiz-adv-x="698" 
d="M0 643h698v-264h-698v264z" />
    <glyph glyph-name="figuredash" unicode="&#x2012;" horiz-adv-x="1910" 
d="M246 641h1417v-258h-1417v258z" />
    <glyph glyph-name="endash" unicode="&#x2013;" horiz-adv-x="1910" 
d="M246 641h1417v-258h-1417v258z" />
    <glyph glyph-name="emdash" unicode="&#x2014;" horiz-adv-x="2093" 
d="M0 639h2093v-254h-2093v254z" />
    <glyph glyph-name="afii00208" unicode="&#x2015;" horiz-adv-x="2093" 
d="M0 639h2093v-254h-2093v254z" />
    <glyph glyph-name="underscoredbl" unicode="&#x2017;" 
d="M0 -104h1024v-132h-1024v132zM0 -344h1024v-131h-1024v131z" />
    <glyph glyph-name="quoteleft" unicode="&#x2018;" horiz-adv-x="618" 
d="M465 752h-322v301q0 98 14 157.5t52.5 97t99 51t160.5 13.5h41v-170q-66 0 -98 -18q-22 -14 -34 -44t-9 -65q0 -8 2 -12h94v-311z" />
    <glyph glyph-name="quoteright" unicode="&#x2019;" horiz-adv-x="624" 
d="M154 1370h321v-301q0 -97 -14 -156.5t-52 -97t-98.5 -51.5t-160.5 -14q-23 0 -41 2v168q82 0 110.5 28.5t28.5 110.5h-94v311z" />
    <glyph glyph-name="quotesinglbase" unicode="&#x201a;" horiz-adv-x="624" 
d="M154 311h321v-301q0 -98 -14 -157.5t-52.5 -97t-98.5 -51t-160 -13.5q-23 0 -41 2v168q82 0 111.5 29.5t27.5 109.5h-94v311z" />
    <glyph glyph-name="quotedblleft" unicode="&#x201c;" horiz-adv-x="1112" 
d="M465 752h-322v301q0 98 14 157.5t52.5 97t99 51t160.5 13.5h41v-170q-66 0 -98 -18q-22 -14 -34 -44t-9 -65q0 -8 2 -12h94v-311zM958 745h-321v302q0 123 24.5 188t81.5 94q47 25 92 31t169 6v-170q-82 0 -111 -28.5t-29 -110.5h94v-312z" />
    <glyph glyph-name="quotedblright" unicode="&#x201d;" horiz-adv-x="1118" 
d="M647 1366h322v-301q0 -97 -14 -156.5t-52.5 -97.5t-99 -52t-160.5 -14q-15 0 -39 3v167q61 2 96 19q22 14 34 43.5t9 64.5q0 9 -2 13h-94v311zM154 1366h321v-301q0 -98 -14 -157t-52 -97t-98.5 -52t-160.5 -14q-14 0 -41 3v167q82 0 110.5 29t28.5 111h-94v311z" />
    <glyph glyph-name="quotedblbase" unicode="&#x201e;" horiz-adv-x="1118" 
d="M647 311h322v-301q0 -97 -14 -156.5t-52.5 -97t-99 -51.5t-160.5 -14q-23 0 -39 2v168q69 3 96 18q22 14 34 44t9 65q0 8 -2 12h-94v311zM154 311h321v-301q0 -98 -14 -157.5t-52.5 -97t-98.5 -51t-160 -13.5q-23 0 -41 2v168q82 0 111.5 29.5t27.5 109.5h-94v311z" />
    <glyph glyph-name="dagger" unicode="&#x2020;" horiz-adv-x="1814" 
d="M1030 1382l27 -381l-21 -53l58 23l551 -27v-178l-547 -27l-62 23l21 -57l-27 -1135h-246l-26 1135l20 57l-61 -23l-547 27v178l547 27l61 -23l-20 58l26 376h246z" />
    <glyph glyph-name="daggerdbl" unicode="&#x2021;" horiz-adv-x="1814" 
d="M1030 1382l27 -376l-21 -58l62 23l547 -27v-178l-547 -27l-62 23l33 -148l-33 -421l62 22l547 -27v-178l-551 -26l-58 20l21 -51l-27 -410h-246l-26 410l20 51l-57 -20l-551 26v178l547 27l61 -22l-33 421l33 148l-61 -23l-547 27v178l547 27l61 -23l-20 58l26 376h246z
" />
    <glyph glyph-name="bullet" unicode="&#x2022;" horiz-adv-x="1366" 
d="M690 977q114 0 196.5 -83.5t82.5 -199.5q0 -118 -83 -201t-200 -83q-118 0 -201.5 82.5t-83.5 199.5q0 120 83.5 202.5t205.5 82.5z" />
    <glyph glyph-name="ellipsis" unicode="&#x2026;" horiz-adv-x="1980" 
d="M166 0v319h328v-319h-328zM825 0v319h328v-319h-328zM1487 0v319h328v-319h-328z" />
    <glyph glyph-name="perthousand" unicode="&#x2030;" horiz-adv-x="3602" 
d="M578 -4l1161 1374h192l-1161 -1374h-192zM616 1389q165 0 247 -18t132 -64q41 -38 57.5 -115t16.5 -231q0 -152 -33 -226.5t-116 -109.5q-44 -19 -120.5 -26t-228.5 -7q-188 0 -271.5 18.5t-133.5 69.5q-37 40 -51.5 104.5t-14.5 190.5q0 176 24.5 248.5t96.5 113.5
q51 30 135.5 41t259.5 11zM575 1235q-68 0 -110 -2.5t-76.5 -13t-52 -25t-29.5 -44.5t-15 -65t-3 -92q0 -160 41 -198q47 -47 270 -47q67 0 107.5 3t74.5 13.5t51 26t28.5 47.5t14.5 70t3 100q0 54 -3.5 87.5t-16.5 61t-31 41.5t-55.5 23t-81.5 11.5t-116 2.5zM1960 782
q164 0 246 -18t133 -64q41 -40 57.5 -116t16.5 -230q0 -152 -33.5 -227.5t-116.5 -110.5q-42 -18 -118.5 -25t-229.5 -7q-190 0 -273.5 18t-132.5 72q-37 38 -51 102.5t-14 190.5q0 177 24.5 250t96.5 114q51 29 134.5 40t260.5 11zM1925 629q-70 0 -112.5 -2.5t-78.5 -13
t-53.5 -24.5t-30 -44t-15.5 -65t-3 -93q0 -160 41 -201q47 -47 269 -47q93 0 144.5 7.5t84 33.5t42 65.5t9.5 112.5q0 69 -2.5 107.5t-14.5 73t-28 49.5t-54 26t-80.5 13t-117.5 2zM3049 782q193 0 282 -27t130 -98q41 -75 41 -303q0 -153 -33 -228t-116 -110
q-42 -18 -119 -25t-230 -7q-190 0 -273 18t-132 72q-37 38 -51.5 102.5t-14.5 190.5q0 178 24.5 250.5t96.5 113.5q51 29 134.5 40t260.5 11zM3015 629q-70 0 -112.5 -2.5t-78.5 -13t-53.5 -24.5t-30 -44t-15.5 -65t-3 -93q0 -160 41 -201q47 -47 268 -47q93 0 145 7.5
t84.5 33.5t42 65.5t9.5 112.5q0 69 -2.5 107.5t-14.5 73t-28 49.5t-54 26t-80.5 13t-117.5 2z" />
    <glyph glyph-name="minute" unicode="&#x2032;" horiz-adv-x="624" 
d="M154 1366h321v-301q0 -98 -14 -157t-52 -97t-98.5 -52t-160.5 -14q-14 0 -41 3v167q82 0 110.5 29t28.5 111h-94v311z" />
    <glyph glyph-name="second" unicode="&#x2033;" horiz-adv-x="1118" 
d="M647 1366h322v-301q0 -97 -14 -156.5t-52.5 -97.5t-99 -52t-160.5 -14q-15 0 -39 3v167q61 2 96 19q22 14 34 43.5t9 64.5q0 9 -2 13h-94v311zM154 1366h321v-301q0 -98 -14 -157t-52 -97t-98.5 -52t-160.5 -14q-14 0 -41 3v167q82 0 110.5 29t28.5 111h-94v311z" />
    <glyph glyph-name="guilsinglleft" unicode="&#x2039;" horiz-adv-x="696" 
d="M82 504l299 512l194 -117l-231 -397l231 -391l-194 -113z" />
    <glyph glyph-name="guilsinglright" unicode="&#x203a;" horiz-adv-x="696" 
d="M614 504l-299 -506l-194 113l231 391l-231 397l194 117z" />
    <glyph glyph-name="exclamdbl" unicode="&#x203c;" horiz-adv-x="1073" 
d="M180 434l-65 711v221h295v-217l-68 -715h-162zM102 0v303h320v-303h-320zM731 434l-65 711v221h295v-217l-68 -715h-162zM653 0v303h320v-303h-320z" />
    <glyph glyph-name="uni203E" unicode="&#x203e;" 
d="M0 1798h1024v-188h-1024v188z" />
    <glyph glyph-name="fraction" unicode="&#x2044;" horiz-adv-x="387" 
d="M-475 -4l1161 1374h174l-1161 -1374h-174z" />
    <glyph glyph-name="zerosuperior" unicode="&#x2070;" horiz-adv-x="1202" 
d="M604 1372q167 0 256.5 -9.5t136.5 -32.5t72 -68q25 -46 34 -113t9 -203q0 -151 -17.5 -226t-60.5 -114q-43 -38 -126 -51.5t-273 -13.5q-229 0 -307 7.5t-129 33.5q-63 32 -87 110.5t-24 257.5q0 159 17.5 236t62.5 117q46 40 138.5 54.5t297.5 14.5zM618 1210h-3
q-77 0 -109.5 0.5t-79 -5.5t-60.5 -8.5t-37 -22.5t-26 -31.5t-10 -51.5t-6.5 -67.5t0.5 -92.5v-3q0 -42 1 -68.5t6.5 -52.5t12.5 -40t23.5 -27t34 -18.5t50 -10t66 -5.5t86.5 -1q167 0 230 8.5t86 34.5q19 22 24.5 68t5.5 167q0 45 -1 71.5t-6.5 54t-12 41t-24 27t-35 18.5
t-53 9.5t-70 5t-93.5 0.5z" />
    <glyph glyph-name="foursuperior" unicode="&#x2074;" horiz-adv-x="1204" 
d="M100 709v233l633 424h244v-508h135v-147h-135v-164h-195v162h-682zM268 858h512v346z" />
    <glyph glyph-name="fivesuperior" unicode="&#x2075;" horiz-adv-x="1204" 
d="M115 805h194q0 -47 6 -65t25 -29q53 -27 246 -27q64 0 100.5 0.5t75.5 3t56.5 5.5t37 11.5t25.5 17t12.5 26.5t7 34.5t0.5 46.5q0 51 -11.5 73.5t-45.5 41.5q-34 17 -262 17q-90 0 -134.5 -1.5t-75 -9t-39.5 -19t-14 -34.5h-180l8 469h920v-145h-745v-181q42 42 91 54
t181 12q207 0 288 -8.5t130 -36.5q50 -28 70 -77t20 -142t-16.5 -148.5t-53.5 -89.5q-45 -38 -131 -51.5t-297 -13.5q-218 0 -309.5 16t-132.5 61q-47 50 -47 189z" />
    <glyph glyph-name="sixsuperior" unicode="&#x2076;" horiz-adv-x="1202" 
d="M1073 1122h-196q1 28 -5 44.5t-20 29t-47 17.5t-77 7.5t-120 2.5q-111 0 -166 -7.5t-81 -26t-35 -56.5q-11 -43 -11 -154q31 45 88 60.5t193 15.5q178 0 258.5 -6t120.5 -21q61 -25 84.5 -72.5t23.5 -146.5q0 -59 -6.5 -99t-25.5 -72t-48 -49.5t-80.5 -29.5t-115.5 -16
t-160 -4q-187 0 -279.5 9t-139 31t-74.5 70q-23 41 -30 108t-7 249q0 65 3 109.5t13.5 85t24.5 65t43.5 45.5t63.5 31.5t90 18t117.5 9.5t152.5 2q99 0 164.5 -3.5t118.5 -14.5t82.5 -27.5t49.5 -46t26.5 -66.5t6.5 -92zM608 909q-73 0 -115 -1t-78.5 -5.5t-53 -11
t-29 -20.5t-15 -30t-2.5 -44q0 -32 6 -49.5t21 -31.5t50 -19.5t81.5 -8t128.5 -2.5q125 0 182.5 9.5t80 34t22.5 77.5q0 27 -2 41.5t-13.5 27.5t-25.5 18.5t-50.5 9.5t-75.5 4.5t-112 0.5z" />
    <glyph glyph-name="sevensuperior" unicode="&#x2077;" horiz-adv-x="1202" 
d="M100 1366h987v-166l-583 -653h-254l588 655h-738v164z" />
    <glyph glyph-name="eightsuperior" unicode="&#x2078;" horiz-adv-x="1202" 
d="M946 965q85 -19 114.5 -59.5t29.5 -137.5q0 -120 -58 -170q-40 -37 -112 -47t-285 -10q-226 0 -310 8.5t-132 34.5q-80 45 -80 180q0 97 28.5 137t112.5 62q-72 14 -102.5 56t-30.5 130q0 141 78 182q47 25 127 33t274 8q191 0 271 -8t130 -31q80 -44 80 -180
q0 -94 -28.5 -133.5t-106.5 -54.5zM637 1229q-81 0 -127.5 -1t-87 -5t-58.5 -9t-31 -17t-15.5 -26t-2.5 -38q0 -69 43 -83t258 -14q80 0 122.5 2t76.5 6t46.5 16t18 27t5.5 43q0 52 -23 72q-18 15 -81.5 23t-143.5 4zM633 897q-241 0 -275 -10q-27 -9 -38 -29.5t-11 -60.5
q0 -27 2.5 -43t16 -29.5t31 -19.5t58.5 -10.5t87 -5.5t127 -1q75 0 117.5 2.5t74 8t44.5 19t18.5 31t5.5 48.5q0 30 -5 46t-16.5 28.5t-44.5 17t-73.5 6.5t-118.5 2z" />
    <glyph glyph-name="ninesuperior" unicode="&#x2079;" horiz-adv-x="1202" 
d="M113 788h198q0 -23 2.5 -37t13 -26t25.5 -17.5t45.5 -9.5t67 -5t96.5 -1h87t68 2t55 3.5t40.5 8t31 11t19.5 17.5t13.5 23t6 32t3.5 39v49v51q-31 -44 -89 -57t-227 -13q-184 0 -248.5 7.5t-111.5 33.5q-90 49 -90 207q0 146 63 203q41 38 124 50.5t288 12.5
q162 0 243.5 -8t125.5 -28t75 -62q28 -40 37.5 -108.5t9.5 -231.5q0 -159 -19 -228.5t-73 -109.5q-44 -32 -135.5 -43.5t-296.5 -11.5q-156 0 -237 10t-127 35q-84 49 -84 174v4v24zM569 1225q-69 0 -109.5 -2.5t-71.5 -9t-44 -21t-19 -34t-6 -52.5q0 -46 13.5 -67.5
t48.5 -28.5q35 -6 213 -6q87 0 133.5 2t83 7.5t50 19t19 31t5.5 50.5q0 27 -3 43t-16 30t-31 20.5t-57 11t-85 5.5t-124 1z" />
    <glyph glyph-name="zeroinferior" unicode="&#x2080;" horiz-adv-x="1202" 
d="M614 825q94 0 153.5 -1.5t117.5 -10t89 -19.5t60.5 -36t41.5 -52.5t22 -77.5t12 -101.5t2 -133.5q0 -143 -15 -213t-55 -110q-43 -45 -126 -60.5t-281 -15.5q-229 0 -307 7.5t-129 33.5q-63 32 -87 110.5t-24 257.5q0 181 24 261t89 114q51 28 136 37.5t277 9.5zM590 664
h-81.5t-64 -3t-52 -4.5t-37.5 -12t-29 -17t-18 -27t-12.5 -35t-5 -48.5t-3.5 -59.5v-76.5q0 -150 39 -186q40 -37 239 -37q200 0 251 11q62 13 80 59q15 38 15 166v20v67.5t-3.5 52.5t-5.5 42.5t-13.5 31t-18.5 24t-30.5 15t-40 10.5t-55 4t-68 3h-86.5z" />
    <glyph glyph-name="oneinferior" unicode="&#x2081;" horiz-adv-x="1198" 
d="M303 436l-102 135l360 248h246v-819h-201v655z" />
    <glyph glyph-name="twoinferior" unicode="&#x2082;" horiz-adv-x="1204" 
d="M119 510v59q0 72 14.5 117t48.5 74q44 38 136.5 51.5t304.5 13.5q205 0 290 -15t125 -58q49 -55 49 -187q0 -75 -13 -120t-44 -76q-32 -32 -84 -46t-160 -22l-311 -20q-104 -8 -135 -29.5t-31 -87.5v-19h778v-145h-972v168q-3 141 59.5 197t231.5 65l315 23
q109 8 138.5 27t29.5 83q0 34 -5.5 52.5t-19 32.5t-48.5 19.5t-80.5 8t-129.5 2.5q-59 0 -93 -0.5t-70 -3.5t-53 -6.5t-34.5 -14t-23.5 -20t-12 -30t-6.5 -40t-0.5 -53.5h-194z" />
    <glyph glyph-name="threeinferior" unicode="&#x2083;" horiz-adv-x="1204" 
d="M487 483h248q80 0 112 22t32 77q0 43 -19 62t-67 26.5t-154 7.5q-221 0 -268 -12q-32 -9 -53 -41.5t-11 -57.5l2 -2v-22h-198q3 107 14.5 147.5t46.5 69.5q44 38 135 51.5t303 13.5q179 0 258.5 -9.5t128.5 -37.5q82 -45 82 -190q0 -79 -28 -117t-99 -55
q83 -15 112.5 -53.5t29.5 -129.5q0 -150 -88 -198q-49 -25 -116.5 -32t-250.5 -7q-279 0 -373 12q-162 24 -162 223v7v47h195v-13q0 -33 2 -52t13 -35.5t25 -23.5t46.5 -12.5t69 -6.5t100.5 -1q158 0 240 4q54 1 76 23t22 72q0 66 -27.5 85t-122.5 19h-256v139z" />
    <glyph glyph-name="fourinferior" unicode="&#x2084;" horiz-adv-x="1204" 
d="M100 162v233l633 424h244v-508h135v-147h-135v-164h-195v162h-682zM268 311h512v346z" />
    <glyph glyph-name="fiveinferior" unicode="&#x2085;" horiz-adv-x="1204" 
d="M115 260h194q0 -47 6 -64t25 -28q52 -27 246 -27q64 0 100.5 0.5t75 3t57 5.5t37.5 12t25 17.5t12.5 26.5t7 34.5t0.5 46.5q0 49 -11.5 72t-45.5 42q-34 17 -262 17q-118 0 -167 -4.5t-69.5 -18t-26.5 -45.5h-180l8 469h920v-145h-745v-180q41 43 90 55t182 12
q206 0 287.5 -8.5t130.5 -36.5q49 -26 69.5 -75.5t20.5 -143.5q0 -93 -16.5 -148.5t-53.5 -89.5q-45 -38 -131 -51.5t-297 -13.5q-217 0 -309 16t-133 62q-47 50 -47 188z" />
    <glyph glyph-name="sixinferior" unicode="&#x2086;" horiz-adv-x="1202" 
d="M1073 578h-196q1 28 -5 43.5t-19.5 27.5t-47 17.5t-77.5 7.5t-120 2q-156 0 -211.5 -16t-70.5 -66q-11 -45 -11 -162q31 46 88 62t193 16q178 0 258.5 -6t120.5 -21q61 -25 84.5 -72.5t23.5 -146.5q0 -59 -6.5 -99t-25.5 -72t-48 -49.5t-80.5 -29.5t-115.5 -16t-160 -4
q-186 0 -278.5 9t-140 31t-74.5 70q-23 41 -30 108t-7 249q0 65 3 109t13.5 84.5t24.5 64.5t43.5 45t63.5 31.5t90 18t117.5 9.5t152.5 2q99 0 164.5 -3.5t118.5 -14.5t82.5 -27t49.5 -45.5t26.5 -65.5t6.5 -91zM614 365q-74 0 -117.5 -1t-80.5 -6t-54 -11t-29.5 -20.5
t-15 -30.5t-2.5 -44q0 -32 6 -49.5t21 -31.5t50 -19.5t81.5 -8t128.5 -2.5q125 0 182.5 9.5t80 34t22.5 77.5q0 32 -5 48t-16.5 29t-46.5 17.5t-78 6.5t-127 2z" />
    <glyph glyph-name="seveninferior" unicode="&#x2087;" horiz-adv-x="1202" 
d="M100 819h987v-166l-583 -653h-254l588 655h-738v164z" />
    <glyph glyph-name="eightinferior" unicode="&#x2088;" horiz-adv-x="1202" 
d="M946 418q85 -19 114.5 -59.5t29.5 -137.5q0 -120 -58 -170q-40 -37 -112 -47t-285 -10q-226 0 -310 8.5t-132 34.5q-80 45 -80 180q0 97 28.5 137t112.5 62q-72 14 -102.5 56t-30.5 130q0 141 78 182q47 25 127 33t274 8q191 0 271 -8t130 -31q80 -44 80 -180
q0 -94 -28.5 -133.5t-106.5 -54.5zM639 682q-78 0 -125.5 -1t-87.5 -5t-59 -9.5t-32.5 -17.5t-16.5 -26t-3 -37q0 -19 1 -30.5t6.5 -22.5t12.5 -17t24 -12t35.5 -8t52.5 -4t69 -2.5t92 -0.5q71 0 111 0.5t75 4.5t50 9t26 16.5t13 24.5t2 36q0 56 -21 73q-19 17 -82 25.5
t-143 3.5zM604 350q-212 0 -253.5 -14.5t-41.5 -87.5q0 -27 2.5 -42.5t16 -29t31 -19t58.5 -10t87 -5.5t127 -1q74 0 116.5 2.5t74 8t45 19t19 31t5.5 48.5q0 25 -2 39.5t-14 27t-27.5 18t-51.5 9.5t-77.5 5t-114.5 1z" />
    </font>
</defs>
</svg>
