<?xml version="1.0" standalone="no"?>
<!DOCTYPE svg PUBLIC "-//W3C//DTD SVG 1.1//EN" "http://www.w3.org/Graphics/SVG/1.1/DTD/svg11.dtd" >
<svg xmlns="http://www.w3.org/2000/svg" xmlns:xlink="http://www.w3.org/1999/xlink" version="1.1">
<metadata>
Created by FontForge 20201107 at Wed Oct  2 06:26:58 2024
 By 
Copyright (c) 2013 Type-O-Tones. v1.0 by Jose M. Uros. Barcelona. All rights reserved.
</metadata>
<defs>
<font id="Arboria-Book" horiz-adv-x="1163" >
  <font-face 
    font-family="Arboria Book"
    font-weight="400"
    font-stretch="normal"
    units-per-em="2048"
    panose-1="2 0 5 6 2 0 0 2 0 4"
    ascent="1686"
    descent="-362"
    x-height="997"
    cap-height="1327"
    bbox="-55 -481 2380 2017"
    underline-thickness="73"
    underline-position="-154"
    unicode-range="U+0020-FB02"
  />
<missing-glyph horiz-adv-x="573" 
 />
    <glyph glyph-name="fi" unicode="fi" horiz-adv-x="1052" 
d="M143 0v864h-161v133h161v66q0 76 18.5 135.5t47 95t67 59t75 32t75.5 8.5q46 0 88.5 -8.5t70.5 -21t49.5 -25t31.5 -20.5l10 -9l-72 -107q-80 55 -160 55q-63 0 -103 -45.5t-40 -152.5v-62h315v-133h-317v-864h-156zM762 0v997h156v-997h-156zM739 1266q0 43 30 73.5
t73 30.5t72.5 -30.5t29.5 -73.5q0 -42 -30 -72.5t-72 -30.5t-72.5 30.5t-30.5 72.5z" />
    <glyph glyph-name="fl" unicode="fl" horiz-adv-x="1052" 
d="M143 0v864h-161v133h161v66q0 76 18.5 135.5t47 95t67 59t75 32t75.5 8.5q46 0 88.5 -8.5t70.5 -21t49.5 -25t31.5 -20.5l10 -9l-72 -107q-80 55 -160 55q-63 0 -103 -45.5t-40 -152.5v-62h315v-133h-317v-864h-156zM762 0v1348h156v-1348h-156z" />
    <glyph glyph-name=".notdef" horiz-adv-x="573" 
 />
    <glyph glyph-name=".null" horiz-adv-x="0" 
 />
    <glyph glyph-name="nonmarkingreturn" horiz-adv-x="682" 
 />
    <glyph glyph-name="space" unicode=" " horiz-adv-x="499" 
 />
    <glyph glyph-name="exclam" unicode="!" horiz-adv-x="462" 
d="M119 92q0 47 33 80t79 33q47 0 80 -33t33 -80q0 -46 -33 -79t-80 -33q-46 0 -79 33t-33 79zM162 348l-19 979h174l-18 -979h-137z" />
    <glyph glyph-name="quotedbl" unicode="&#x22;" horiz-adv-x="720" 
d="M156 860v467h135v-467h-135zM430 860v467h135v-467h-135z" />
    <glyph glyph-name="numbersign" unicode="#" 
d="M176 0l88 371h-162l29 118h160l94 383h-164l29 119h164l82 336h125l-82 -336h241l82 336h123l-82 -336h158l-29 -119h-155l-93 -383h158l-29 -118h-157l-90 -371h-123l90 371h-242l-90 -371h-125zM420 489h239l95 383h-242z" />
    <glyph glyph-name="dollar" unicode="$" 
d="M92 195l72 118q160 -174 411 -174q138 0 234 68.5t96 173.5q0 39 -12.5 70.5t-38.5 54.5t-52.5 39.5t-68.5 30t-72.5 21t-76.5 17.5q-49 11 -86.5 20.5t-83.5 26t-79.5 34.5t-67.5 45.5t-55 59.5t-34.5 76t-13.5 95q0 78 30 142.5t80.5 106.5t111 68t126.5 35v238h137
v-238q178 -11 342 -154l-73 -118q-162 133 -334 133q-98 0 -178 -57t-80 -152q0 -47 21 -83.5t61 -60.5t84 -39.5t102 -27.5q82 -16 145.5 -34.5t128 -49.5t106.5 -70t68.5 -97.5t26.5 -131.5q0 -166 -120 -265.5t-300 -115.5v-264h-137v260q-259 19 -420 199z" />
    <glyph glyph-name="percent" unicode="%" horiz-adv-x="1744" 
d="M227 942q0 -126 50.5 -207.5t134.5 -81.5q81 0 131.5 81.5t50.5 207.5t-50.5 207.5t-131.5 81.5q-84 0 -134.5 -81.5t-50.5 -207.5zM102 942q0 178 87.5 292t222.5 114q134 0 220.5 -114t86.5 -292t-86.5 -291.5t-220.5 -113.5q-135 0 -222.5 113.5t-87.5 291.5z
M1151 385q0 -126 50 -206.5t132 -80.5q83 0 134 80.5t51 206.5t-51.5 207.5t-133.5 81.5t-132 -81.5t-50 -207.5zM1026 385q0 179 86.5 292.5t220.5 113.5q135 0 222 -113.5t87 -292.5q0 -178 -87 -291.5t-222 -113.5q-134 0 -220.5 113.5t-86.5 291.5zM426 20l815 1358
l90 -51l-815 -1358z" />
    <glyph glyph-name="ampersand" unicode="&#x26;" horiz-adv-x="1179" 
d="M66 375q0 108 63.5 206t187.5 160q-98 146 -98 275q0 60 23 117.5t66 106t114.5 78.5t159.5 30q47 0 92 -11t93.5 -36.5t91.5 -76t73 -120.5l-135 -78q-31 83 -91.5 129.5t-123.5 46.5q-92 0 -144.5 -55.5t-52.5 -130.5q0 -83 57 -175t174 -218l269 -287q63 83 63 207
h154q0 -95 -31 -184.5t-72 -135.5l140 -147l-105 -101l-135 142q-77 -65 -176 -101t-207 -36q-87 0 -165.5 24t-143 71t-103 124.5t-38.5 175.5zM229 383q0 -116 87.5 -185t211.5 -69q145 0 260 94l-380 404q-88 -39 -133.5 -105t-45.5 -139z" />
    <glyph glyph-name="quotesingle" unicode="'" horiz-adv-x="446" 
d="M156 860v467h135v-467h-135z" />
    <glyph glyph-name="parenleft" unicode="(" horiz-adv-x="618" 
d="M119 584q0 255 91.5 458.5t244.5 352.5l94 -103q-127 -139 -197.5 -322.5t-70.5 -385.5t70.5 -386t197.5 -323l-94 -102q-153 149 -244.5 352.5t-91.5 458.5z" />
    <glyph glyph-name="parenright" unicode=")" horiz-adv-x="618" 
d="M70 -125q128 138 198 321t70 388q0 203 -70.5 386.5t-197.5 321.5l94 103q153 -149 244.5 -352.5t91.5 -458.5t-91.5 -458.5t-244.5 -352.5z" />
    <glyph glyph-name="asterisk" unicode="*" horiz-adv-x="847" 
d="M365 614l10 279l-238 -148l-57 101l250 131l-250 131l57 100l238 -149l-10 280h118l-10 -280l238 149l57 -100l-250 -131l250 -131l-57 -101l-238 150l10 -281h-118z" />
    <glyph glyph-name="plus" unicode="+" 
d="M508 94v381h-383v133h383v385h143v-385h387v-133h-387v-381h-143z" />
    <glyph glyph-name="comma" unicode="," horiz-adv-x="432" 
d="M76 -281l100 469h164l-143 -469h-121z" />
    <glyph glyph-name="hyphen" unicode="-" horiz-adv-x="899" 
d="M61 420v135h777v-135h-777z" />
    <glyph glyph-name="period" unicode="." horiz-adv-x="432" 
d="M102 92q0 47 33 80t80 33t80 -33t33 -80t-33 -79.5t-80 -32.5t-80 32.5t-33 79.5z" />
    <glyph glyph-name="slash" unicode="/" horiz-adv-x="1013" 
d="M31 -39l876 1458h154l-877 -1458h-153z" />
    <glyph glyph-name="zero" unicode="0" 
d="M250 664q0 -237 91.5 -388t240.5 -151t240 151t91 388t-91 387.5t-240 150.5t-240.5 -150.5t-91.5 -387.5zM82 664q0 197 63.5 353t177.5 243.5t259 87.5t259 -87.5t177 -243.5t63 -353t-63 -353t-177 -243.5t-259 -87.5t-259 87.5t-177.5 243.5t-63.5 353z" />
    <glyph glyph-name="one" unicode="1" 
d="M233 0v145h318v967l-277 -201l-77 115l372 301h142v-1182h303v-145h-781z" />
    <glyph glyph-name="two" unicode="2" 
d="M123 0v113q184 151 309.5 265.5t220 219.5t139 190.5t44.5 159.5q0 108 -77.5 180t-197.5 72q-88 0 -168 -40.5t-170 -129.5l-90 107q183 211 436 211q196 0 315.5 -113t119.5 -274q0 -82 -39 -174t-101 -176t-147 -171t-170.5 -158t-177.5 -137h675v-145h-921z" />
    <glyph glyph-name="three" unicode="3" 
d="M109 139l88 117q56 -66 143.5 -99.5t187.5 -33.5q155 0 250.5 85.5t95.5 217.5q0 117 -91 193.5t-230 76.5q-109 0 -193 -53l-63 107l459 432h-604v145h829v-141l-379 -361q195 -6 318.5 -114.5t123.5 -286.5q0 -205 -142 -324.5t-365 -119.5q-138 0 -249 41.5
t-179 117.5z" />
    <glyph glyph-name="four" unicode="4" 
d="M731 0v283h-629v120l551 932l135 -78l-495 -831h438v326h160v-326h172v-143h-172v-283h-160z" />
    <glyph glyph-name="five" unicode="5" 
d="M141 117l66 129q157 -123 340 -123q150 0 237.5 87t87.5 204q0 129 -97 210t-240 81q-150 0 -283 -93l-78 62v653h801v-145h-643v-394q122 54 237 54q202 0 337.5 -117t135.5 -307q0 -187 -134.5 -312.5t-358.5 -125.5q-245 0 -408 137z" />
    <glyph glyph-name="six" unicode="6" 
d="M100 444q0 182 125 334l467 570l125 -95l-305 -362q33 14 86 14q196 0 329.5 -130.5t133.5 -323.5q0 -130 -59.5 -237t-170.5 -170.5t-251 -63.5q-213 0 -346.5 133.5t-133.5 330.5zM268 449q0 -137 88 -231.5t224 -94.5q135 0 224 94.5t89 231.5q0 132 -90.5 225.5
t-222.5 93.5q-133 0 -222.5 -93.5t-89.5 -225.5z" />
    <glyph glyph-name="seven" unicode="7" 
d="M297 0l618 1182h-763v145h940v-119l-621 -1208h-174z" />
    <glyph glyph-name="eight" unicode="8" 
d="M94 397q0 123 67 217t183 140q-67 43 -104 111.5t-37 152.5q0 142 106 236t273 94t273 -94t106 -236q0 -83 -38.5 -151.5t-105.5 -112.5q117 -48 184.5 -141.5t67.5 -215.5q0 -184 -135.5 -300.5t-351.5 -116.5q-217 0 -352.5 116.5t-135.5 300.5zM264 401
q0 -117 88.5 -197.5t229.5 -80.5t229 79t88 199q0 119 -89 200t-228 81q-140 0 -229 -81t-89 -200zM356 1010q0 -84 63.5 -142.5t162.5 -58.5t162 58.5t63 142.5q0 86 -62.5 143t-162.5 57t-163 -57t-63 -143z" />
    <glyph glyph-name="nine" unicode="9" 
d="M344 74l305 362q-19 -14 -86 -14q-195 0 -329 131t-134 324q0 130 60 237t171 170.5t251 63.5q141 0 251.5 -62.5t169 -168t58.5 -234.5q0 -88 -34 -176t-91 -158l-467 -569zM268 881q0 -133 91 -227.5t223 -94.5q133 0 222 94t89 228q0 135 -87.5 229t-223.5 94
q-135 0 -224.5 -94.5t-89.5 -228.5z" />
    <glyph glyph-name="colon" unicode=":" horiz-adv-x="432" 
d="M102 838q0 47 33 80.5t80 33.5t80 -33.5t33 -80.5q0 -46 -33 -79.5t-80 -33.5t-80 33.5t-33 79.5zM102 92q0 47 33 80t80 33t80 -33t33 -80q0 -46 -33 -79t-80 -33t-80 33t-33 79z" />
    <glyph glyph-name="semicolon" unicode=";" horiz-adv-x="450" 
d="M117 838q0 47 33 80.5t79 33.5q47 0 81 -33.5t34 -80.5q0 -46 -34 -79.5t-81 -33.5q-46 0 -79 33.5t-33 79.5zM76 -281l100 469h164l-143 -469h-121z" />
    <glyph glyph-name="less" unicode="&#x3c;" horiz-adv-x="1114" 
d="M143 489v107l877 381v-152l-674 -282l674 -285v-149z" />
    <glyph glyph-name="equal" unicode="=" 
d="M125 342v133h913v-133h-913zM125 649v133h913v-133h-913z" />
    <glyph glyph-name="greater" unicode="&#x3e;" 
d="M143 109v149l674 285l-674 282v152l877 -381v-107z" />
    <glyph glyph-name="question" unicode="?" horiz-adv-x="976" 
d="M362 346l-16 283q93 0 165 26.5t113.5 71t62 96.5t20.5 109q0 106 -77.5 184t-193.5 78q-89 0 -159.5 -48.5t-104.5 -129.5l-133 65q48 124 155 195.5t252 71.5q187 0 305.5 -122t118.5 -296q0 -157 -99 -271.5t-251 -134.5l-18 -178h-140zM322 92q0 46 32.5 79.5
t79.5 33.5q46 0 79.5 -33.5t33.5 -79.5q0 -47 -33.5 -79.5t-79.5 -32.5q-47 0 -79.5 32.5t-32.5 79.5z" />
    <glyph glyph-name="at" unicode="@" horiz-adv-x="1884" 
d="M143 500q0 218 109 404t296 294.5t406 108.5q159 0 304 -57t251 -154t169 -234t63 -291q0 -203 -91 -328.5t-227 -125.5q-163 0 -211 143q-47 -80 -127.5 -122t-185.5 -42q-146 0 -256.5 119t-110.5 283t109.5 282.5t257.5 118.5q185 0 293 -141v121h125v-473
q0 -70 27 -121.5t88 -51.5q79 0 133.5 93t54.5 245q0 174 -86 317t-239 225.5t-341 82.5q-139 0 -265.5 -55t-218 -148t-146 -222t-54.5 -271q0 -192 92.5 -348.5t248.5 -243t341 -86.5q184 0 328 72l49 -99q-158 -82 -379 -82t-405.5 100t-293 281t-108.5 406zM662 498
q0 -117 78.5 -201t191.5 -84t186.5 81.5t73.5 203.5q0 128 -72.5 205t-187.5 77q-114 0 -192 -82.5t-78 -199.5z" />
    <glyph glyph-name="A" unicode="A" horiz-adv-x="1427" 
d="M16 0l627 1327h141l627 -1327h-170l-123 258h-811l-123 -258h-168zM369 393h688l-223 467q-26 55 -56.5 124.5t-47.5 111.5l-17 43q-60 -158 -119 -281z" />
    <glyph glyph-name="B" unicode="B" horiz-adv-x="1366" 
d="M156 0v1327h616q165 0 268 -86t103 -235q0 -81 -44.5 -150t-105.5 -92q120 -21 200.5 -121.5t80.5 -236.5q0 -185 -137.5 -295.5t-364.5 -110.5h-616zM319 145h443q156 0 248 70.5t92 187.5q0 121 -79 194t-224 73h-480v-525zM319 815h461q88 0 139.5 50.5t51.5 129.5
q0 82 -55.5 134.5t-155.5 52.5h-441v-367z" />
    <glyph glyph-name="C" unicode="C" horiz-adv-x="1314" 
d="M94 664q0 139 53.5 265.5t145 218.5t220 146t271.5 54q131 0 249.5 -45.5t211.5 -126.5l-100 -113q-150 135 -350 135q-149 0 -270.5 -71.5t-190 -194t-68.5 -268.5q0 -145 68 -267.5t188 -195t264 -72.5q112 0 212.5 43t175.5 121l104 -113q-95 -95 -221.5 -147.5
t-270.5 -52.5t-272.5 54t-220.5 145.5t-145.5 218t-53.5 266.5z" />
    <glyph glyph-name="D" unicode="D" horiz-adv-x="1447" 
d="M319 145h330q158 0 280 67.5t187.5 185.5t65.5 266t-65.5 265.5t-187.5 185t-280 67.5h-330v-1037zM156 0v1327h503q155 0 286.5 -53t220.5 -143t138.5 -211t49.5 -256t-49.5 -256t-138.5 -211.5t-220.5 -143.5t-286.5 -53h-503z" />
    <glyph glyph-name="E" unicode="E" horiz-adv-x="1263" 
d="M156 0v1327h1005v-145h-842v-402h787v-143h-787v-492h871v-145h-1034z" />
    <glyph glyph-name="F" unicode="F" horiz-adv-x="1140" 
d="M156 0v1327h952v-145h-789v-402h660v-143h-660v-637h-163z" />
    <glyph glyph-name="G" unicode="G" horiz-adv-x="1495" 
d="M94 664q0 139 53.5 265.5t145.5 218.5t220.5 146t272.5 54q130 0 249 -46t214 -128l-102 -115q-148 139 -361 139q-144 0 -263.5 -71.5t-188 -194t-68.5 -268.5t68.5 -268.5t188 -194.5t263.5 -72q126 0 234 56.5t180 154.5v274h-291v142h451v-477q-92 -138 -244 -218.5
t-330 -80.5q-144 0 -272.5 54t-220.5 145.5t-145.5 218t-53.5 266.5z" />
    <glyph glyph-name="H" unicode="H" horiz-adv-x="1406" 
d="M156 0v1327h163v-547h768v547h164v-1327h-164v635h-768v-635h-163z" />
    <glyph glyph-name="I" unicode="I" horiz-adv-x="475" 
d="M156 0v1327h163v-1327h-163z" />
    <glyph glyph-name="J" unicode="J" horiz-adv-x="1112" 
d="M53 227l119 90q103 -188 297 -188q155 0 249.5 100.5t94.5 311.5v786h164v-797q0 -143 -39.5 -251t-110.5 -172t-160 -95.5t-196 -31.5q-135 0 -246.5 63.5t-171.5 183.5z" />
    <glyph glyph-name="K" unicode="K" horiz-adv-x="1318" 
d="M156 0v1327h163v-850q74 99 127 160l611 690h198l-528 -612l571 -715h-196l-481 600l-302 -338v-262h-163z" />
    <glyph glyph-name="L" unicode="L" horiz-adv-x="1230" 
d="M156 0v1327h163v-1182h838v-145h-1001z" />
    <glyph glyph-name="M" unicode="M" horiz-adv-x="1679" 
d="M156 0v1327h145l158 -225q42 -61 137 -193t170 -234l74 -102q285 392 379 529l157 225h148v-1327h-164v1047q-55 -89 -131 -195l-389 -547l-394 549q-32 45 -63.5 93.5t-47.5 74.5l-16 25v-1047h-163z" />
    <glyph glyph-name="N" unicode="N" horiz-adv-x="1441" 
d="M156 0v1327h159l635 -823q39 -50 82 -113t66 -101l24 -38v1075h164v-1327h-164l-614 797q-44 58 -91.5 125.5t-72.5 105.5l-25 39v-1067h-163z" />
    <glyph glyph-name="O" unicode="O" horiz-adv-x="1572" 
d="M786 129q144 0 264 72.5t188.5 195t68.5 267.5q0 146 -68.5 268.5t-188.5 194t-264 71.5t-263.5 -71.5t-188 -194t-68.5 -268.5q0 -145 68 -267.5t188 -195t264 -72.5zM786 1348q192 0 351.5 -92t250.5 -249t91 -343q0 -187 -91 -344t-250.5 -248.5t-351.5 -91.5
q-144 0 -272.5 54t-220.5 145.5t-145.5 218t-53.5 266.5q0 139 53.5 265.5t145.5 218.5t220.5 146t272.5 54z" />
    <glyph glyph-name="P" unicode="P" horiz-adv-x="1361" 
d="M156 0v1327h544q133 0 242 -39t179.5 -107t108.5 -158.5t38 -193.5t-38 -193t-109 -158t-180 -107t-243 -39h-379v-332h-163zM319 477h396q170 0 275.5 101t105.5 251t-105.5 251.5t-273.5 101.5h-398v-705z" />
    <glyph glyph-name="Q" unicode="Q" horiz-adv-x="1570" 
d="M786 1348q192 0 351.5 -92t250.5 -249t91 -343q0 -247 -158 -439l129 -127l-107 -106l-129 129q-187 -141 -428 -141q-144 0 -272.5 54t-220.5 145.5t-145.5 218t-53.5 266.5q0 139 53.5 265.5t145.5 218.5t220.5 146t272.5 54zM786 129q179 0 314 107l-178 180l104 104
l178 -178q103 147 103 322q0 146 -68.5 268.5t-188.5 194t-264 71.5t-263.5 -71.5t-188 -194t-68.5 -268.5q0 -145 68 -267.5t188 -195t264 -72.5z" />
    <glyph glyph-name="R" unicode="R" horiz-adv-x="1361" 
d="M156 0v1327h542q137 0 246.5 -39t179.5 -107.5t107 -158t37 -193.5q0 -148 -80 -268t-223 -176l313 -385h-207l-268 338q-51 -6 -242 -6h-242v-332h-163zM319 477h396q169 0 275 101t106 251t-105.5 251.5t-273.5 101.5h-398v-705z" />
    <glyph glyph-name="S" unicode="S" horiz-adv-x="1226" 
d="M94 182l74 125q175 -178 442 -178q62 0 122.5 14.5t112.5 43t84 76.5t32 108q0 37 -12 67.5t-38 53.5t-52.5 40t-70 32t-75 24t-82.5 22q-63 15 -102 25.5t-95.5 29.5t-92 37.5t-75.5 47.5t-62.5 61.5t-38 77.5t-15.5 98q0 111 68 195t172 125t222 41q250 0 451 -150
l-76 -127q-165 127 -375 127q-36 0 -74.5 -7t-77.5 -23.5t-69.5 -40t-49.5 -59.5t-19 -79q0 -34 11 -62t36 -49.5t50.5 -37t69.5 -30.5t76.5 -24t87.5 -22q59 -14 103 -27t96.5 -32.5t90.5 -40t76 -50.5t61.5 -64.5t38 -80t14.5 -98.5q0 -78 -30 -143.5t-80.5 -110.5
t-118 -76.5t-142 -46t-152.5 -14.5q-318 0 -516 202z" />
    <glyph glyph-name="T" unicode="T" horiz-adv-x="1228" 
d="M532 0v1182h-491v145h1147v-145h-492v-1182h-164z" />
    <glyph glyph-name="U" unicode="U" horiz-adv-x="1368" 
d="M684 -20q-151 0 -275.5 65t-199 187.5t-74.5 279.5v815h164v-815q0 -167 112 -275t273 -108q162 0 273.5 107.5t111.5 275.5v815h164v-815q0 -157 -75 -279.5t-199.5 -187.5t-274.5 -65z" />
    <glyph glyph-name="V" unicode="V" horiz-adv-x="1368" 
d="M614 -6l-594 1333h170l396 -883q16 -37 40.5 -99t41.5 -105l16 -43q59 165 96 247l398 883h170l-592 -1333h-142z" />
    <glyph glyph-name="W" unicode="W" horiz-adv-x="1910" 
d="M465 -6l-445 1333h166l308 -924l53 -180q22 100 47 180l276 924h170l277 -924l47 -180q26 100 53 180l309 924h164l-444 -1333h-162l-280 913q-14 44 -26 96t-17 83l-5 30q-18 -111 -49 -209l-280 -913h-162z" />
    <glyph glyph-name="X" unicode="X" horiz-adv-x="1249" 
d="M20 0l510 664l-505 663h192l289 -366q24 -30 53.5 -74t47.5 -73l18 -28q72 111 123 177l286 364h191l-506 -663l510 -664h-193l-288 371q-23 28 -53.5 71t-50.5 72l-19 29q-74 -111 -123 -174l-289 -369h-193z" />
    <glyph glyph-name="Y" unicode="Y" horiz-adv-x="1275" 
d="M557 0v629l-537 698h193l268 -340q33 -41 72.5 -96t62.5 -90l23 -35q90 131 160 221l264 340h192l-534 -696v-631h-164z" />
    <glyph glyph-name="Z" unicode="Z" horiz-adv-x="1232" 
d="M74 0v135l764 932q27 34 53.5 62.5t39.5 40.5l13 12h-833v145h1028v-135l-754 -920q-29 -36 -57 -67.5t-41 -45.5l-13 -14h885v-145h-1085z" />
    <glyph glyph-name="bracketleft" unicode="[" horiz-adv-x="573" 
d="M119 -203v1624h391v-118h-231v-1387h231v-119h-391z" />
    <glyph glyph-name="backslash" unicode="\" horiz-adv-x="1165" 
d="M1006 -39l-1018 1458h157l1018 -1458h-157z" />
    <glyph glyph-name="bracketright" unicode="]" horiz-adv-x="573" 
d="M63 -203v119h234v1387h-234v118h392v-1624h-392z" />
    <glyph glyph-name="asciicircum" unicode="^" horiz-adv-x="1126" 
d="M123 662l393 665h94l394 -665h-152l-289 471l-289 -471h-151z" />
    <glyph glyph-name="underscore" unicode="_" horiz-adv-x="983" 
d="M-6 -240v103h995v-103h-995z" />
    <glyph glyph-name="grave" unicode="`" horiz-adv-x="696" 
d="M381 1157l-193 273h174l166 -273h-147z" />
    <glyph glyph-name="a" unicode="a" horiz-adv-x="1220" 
d="M84 498q0 142 62.5 261t173.5 189t245 70q115 0 210.5 -51t154.5 -142v172h155v-997h-155v170q-58 -91 -153.5 -140.5t-211.5 -49.5q-134 0 -245 69.5t-173.5 188.5t-62.5 260zM244 498q0 -156 98.5 -261.5t247.5 -105.5q144 0 242 104.5t98 262.5q0 156 -97 262
t-243 106q-148 0 -247 -106t-99 -262z" />
    <glyph glyph-name="b" unicode="b" horiz-adv-x="1214" 
d="M135 0v1348h156v-523q57 91 151 142t209 51q134 0 244.5 -70t172.5 -189t62 -261q0 -141 -62 -259.5t-172.5 -188.5t-244.5 -70q-115 0 -209 49.5t-151 140.5v-170h-156zM291 498q0 -156 97 -261.5t243 -105.5t243 105.5t97 261.5t-97 262t-243 106t-243 -106t-97 -262z
" />
    <glyph glyph-name="c" unicode="c" horiz-adv-x="1038" 
d="M84 498q0 106 41.5 202t112 166t167.5 111t203 41q101 0 194 -36.5t165 -100.5l-101 -111q-103 96 -256 96q-154 0 -260 -106.5t-106 -261.5q0 -154 106 -260.5t264 -106.5q83 0 157.5 30.5t125.5 84.5l92 -115q-73 -72 -171.5 -111.5t-209.5 -39.5q-107 0 -203.5 41
t-167 110t-112 165t-41.5 202z" />
    <glyph glyph-name="d" unicode="d" horiz-adv-x="1214" 
d="M84 498q0 142 62.5 261t173.5 189t245 70q113 0 207.5 -51t151.5 -142v523h155v-1348h-155v170q-57 -91 -151 -140.5t-208 -49.5q-134 0 -245 69.5t-173.5 188.5t-62.5 260zM244 498q0 -156 98 -261.5t244 -105.5q143 0 240.5 104t97.5 263q0 156 -97 262t-241 106
q-146 0 -244 -106t-98 -262z" />
    <glyph glyph-name="e" unicode="e" horiz-adv-x="1146" 
d="M246 563h659q-13 136 -106 226t-221 90q-124 0 -218.5 -90.5t-113.5 -225.5zM84 498q0 141 66.5 261t181.5 189.5t252 69.5q130 0 240.5 -69.5t174.5 -187.5t64 -255l-4 -66h-811q18 -143 120.5 -231t241.5 -88q180 0 308 115l73 -113q-168 -143 -381 -143
q-142 0 -262 64t-192 184t-72 270z" />
    <glyph glyph-name="f" unicode="f" horiz-adv-x="626" 
d="M143 0v864h-161v133h161v66q0 76 18.5 135.5t47 95t67 59t75 32t75.5 8.5q46 0 88.5 -8.5t70.5 -21t49.5 -25t31.5 -20.5l10 -9l-72 -107q-80 55 -160 55q-63 0 -103 -45.5t-40 -152.5v-62h315v-133h-317v-864h-156z" />
    <glyph glyph-name="g" unicode="g" horiz-adv-x="1214" 
d="M84 537q0 207 137.5 344t343.5 137q114 0 208 -50.5t151 -142.5v172h155v-774q0 -125 -40 -222.5t-97.5 -152.5t-131 -90.5t-131 -47t-106.5 -11.5q-119 0 -220.5 41t-174.5 113l78 102q125 -125 313 -125q17 0 43 4t69.5 15.5t83.5 37.5t77 64t59.5 102t22.5 144v43
q-57 -92 -150.5 -141.5t-208.5 -49.5q-206 0 -343.5 139.5t-137.5 348.5zM244 526q0 -144 95 -234.5t241 -90.5t239.5 90.5t93.5 234.5q0 150 -94 245t-239 95q-146 0 -241 -95t-95 -245z" />
    <glyph glyph-name="h" unicode="h" horiz-adv-x="1112" 
d="M135 0v1348h156v-510q111 180 340 180q180 0 273 -108.5t93 -301.5v-608h-155v584q0 139 -60 210.5t-196 71.5q-133 0 -214 -89.5t-81 -213.5v-563h-156z" />
    <glyph glyph-name="i" unicode="i" horiz-adv-x="425" 
d="M135 0v997h156v-997h-156zM113 1266q0 43 29.5 73.5t72.5 30.5t72.5 -30.5t29.5 -73.5q0 -42 -30 -72.5t-72 -30.5t-72 30.5t-30 72.5z" />
    <glyph glyph-name="j" unicode="j" horiz-adv-x="425" 
d="M20 -344l-53 123q168 100 168 377v841h156v-825q0 -380 -271 -516zM113 1266q0 43 29.5 73.5t72.5 30.5t72.5 -30.5t29.5 -73.5q0 -42 -30 -72.5t-72 -30.5t-72 30.5t-30 72.5z" />
    <glyph glyph-name="k" unicode="k" horiz-adv-x="1054" 
d="M135 0v1348h156v-899l483 548h201l-397 -442l466 -555h-200l-365 446l-188 -215v-231h-156z" />
    <glyph glyph-name="l" unicode="l" horiz-adv-x="425" 
d="M135 0v1348h156v-1348h-156z" />
    <glyph glyph-name="m" unicode="m" horiz-adv-x="1753" 
d="M135 0v997h156v-159q49 86 133.5 133t181.5 47q242 0 322 -199q52 94 147 146.5t197 52.5q182 0 274 -105.5t92 -302.5v-610h-155v584q0 135 -54 208.5t-190 73.5q-118 0 -196 -79t-78 -205v-582h-156v584q0 135 -54 208.5t-190 73.5q-117 0 -195.5 -86.5t-78.5 -212.5
v-567h-156z" />
    <glyph glyph-name="n" unicode="n" horiz-adv-x="1112" 
d="M135 0v997h156v-159q113 180 340 180q183 0 274.5 -108t91.5 -302v-608h-155v584q0 140 -58 211t-194 71q-123 0 -211 -87t-88 -220v-559h-156z" />
    <glyph glyph-name="o" unicode="o" horiz-adv-x="1216" 
d="M84 498q0 106 41.5 202t112 166t167.5 111t203 41q142 0 263 -69.5t191.5 -189.5t70.5 -261q0 -140 -70.5 -259.5t-191.5 -189t-263 -69.5q-106 0 -203.5 41t-167.5 110.5t-111.5 165.5t-41.5 201zM244 498q0 -153 106 -260t258 -107t258.5 107.5t106.5 259.5
q0 153 -106.5 260.5t-258.5 107.5t-258 -107.5t-106 -260.5z" />
    <glyph glyph-name="p" unicode="p" horiz-adv-x="1214" 
d="M135 -281v1278h156v-172q57 91 151 142t209 51q134 0 244.5 -70t172.5 -189t62 -261q0 -141 -62 -259.5t-172.5 -188.5t-244.5 -70q-111 0 -205.5 52.5t-154.5 137.5v-451h-156zM291 498q0 -156 97 -261.5t243 -105.5t243 105.5t97 261.5t-97 262t-243 106t-243 -106
t-97 -262z" />
    <glyph glyph-name="q" unicode="q" horiz-adv-x="1214" 
d="M84 498q0 142 62.5 261t173.5 189t245 70q113 0 207.5 -51t151.5 -142v172h155v-1278h-155v451q-57 -91 -151 -140.5t-208 -49.5q-134 0 -245 69.5t-173.5 188.5t-62.5 260zM244 498q0 -156 98 -261.5t244 -105.5q144 0 241 105.5t97 261.5q0 158 -98 263t-240 105
q-146 0 -244 -106t-98 -262z" />
    <glyph glyph-name="r" unicode="r" horiz-adv-x="716" 
d="M135 0v997h156v-211q44 103 142.5 167.5t242.5 64.5v-172q-79 0 -145.5 -21.5t-121.5 -67t-86.5 -126.5t-31.5 -191v-440h-156z" />
    <glyph glyph-name="s" unicode="s" horiz-adv-x="966" 
d="M84 135l76 125q55 -56 137.5 -92.5t175.5 -36.5q105 0 177.5 42t72.5 110q0 28 -15 51.5t-35 38.5t-57 29t-64 21.5t-73 18.5q-47 12 -77.5 20.5t-71 23t-67 29t-54.5 36.5t-44.5 47t-27 59.5t-10.5 75.5q0 65 32 120t83.5 90.5t114.5 55t128 19.5q184 0 344 -111
l-75 -121q-118 80 -267 80q-80 0 -140 -37.5t-60 -93.5q0 -23 7.5 -41t27 -32.5t34.5 -23.5t49.5 -19.5t50.5 -14.5t58 -14q65 -15 109.5 -28.5t98 -38.5t85.5 -55t54 -76.5t22 -104.5q0 -77 -36 -137.5t-95.5 -96.5t-130 -54.5t-146.5 -18.5q-128 0 -228 44.5t-163 110.5z
" />
    <glyph glyph-name="t" unicode="t" horiz-adv-x="735" 
d="M176 299v565h-149v133h149v222l156 24v-246h342v-133h-342v-536q0 -62 11 -105t32 -64.5t44.5 -30.5t53.5 -9q41 0 82 13.5t61 27.5l21 14l51 -121q-105 -73 -229 -73q-132 0 -207.5 79t-75.5 240z" />
    <glyph glyph-name="u" unicode="u" horiz-adv-x="1099" 
d="M115 381v616h155v-583q0 -138 61 -210.5t195 -72.5q123 0 203 84t80 227v555h156v-997h-156v154q-108 -174 -322 -174q-123 0 -208.5 54t-124.5 142.5t-39 204.5z" />
    <glyph glyph-name="v" unicode="v" horiz-adv-x="1044" 
d="M451 -6l-441 1003h162l279 -635q17 -40 35 -89.5t27 -78.5l9 -30q33 110 72 196l278 637h162l-440 -1003h-143z" />
    <glyph glyph-name="w" unicode="w" horiz-adv-x="1458" 
d="M352 -6l-342 1003h154l225 -661q10 -29 19 -65.5t12 -58.5l4 -22q13 80 31 146l196 661h156l199 -661q8 -29 15.5 -65.5t10.5 -58.5l4 -22q12 80 35 146l223 661h154l-340 -1003h-141l-205 665q-8 27 -16 63.5t-12 59.5l-5 23q-13 -85 -31 -146l-204 -665h-142z" />
    <glyph glyph-name="x" unicode="x" horiz-adv-x="966" 
d="M14 0l373 504l-373 493h179l198 -264l92 -129q60 84 95 131l196 262h178l-372 -495l372 -502h-178l-194 258l-97 141q-59 -90 -96 -141l-194 -258h-179z" />
    <glyph glyph-name="y" unicode="y" horiz-adv-x="1071" 
d="M217 -301v147q88 0 140 36t100 138l20 46l-454 931h165l295 -624l68 -156q44 109 67 162l269 618h162l-467 -1046q-30 -69 -67.5 -117.5t-71.5 -74t-78 -40t-74.5 -17.5t-73.5 -3z" />
    <glyph glyph-name="z" unicode="z" horiz-adv-x="927" 
d="M53 0v123l482 588q25 32 58 68.5t53 56.5l20 20h-592v141h782v-123l-479 -579l-135 -154h632v-141h-821z" />
    <glyph glyph-name="braceleft" unicode="{" horiz-adv-x="790" 
d="M109 541v127h30q63 0 101.5 28.5t38.5 91.5v175q0 469 362 469h86v-132q-162 0 -226.5 -76.5t-64.5 -258.5v-162q0 -30 -5.5 -58.5t-19 -60t-43.5 -54t-73 -28.5q141 -36 141 -199v-159q0 -183 64.5 -259.5t226.5 -76.5v-131h-86q-362 0 -362 467v176q0 62 -39 91.5
t-101 29.5h-30z" />
    <glyph glyph-name="bar" unicode="|" horiz-adv-x="440" 
d="M154 -387v1898h129v-1898h-129z" />
    <glyph glyph-name="braceright" unicode="}" horiz-adv-x="790" 
d="M63 -223v131q162 0 225.5 76.5t63.5 259.5v159q0 162 144 199q-43 6 -73 28.5t-44.5 54t-20.5 60t-6 58.5v162q0 183 -63.5 259t-225.5 76v132h87q362 0 362 -469v-175q0 -120 139 -120h31v-127h-31q-62 0 -100.5 -29.5t-38.5 -91.5v-176q0 -467 -362 -467h-87z" />
    <glyph glyph-name="asciitilde" unicode="~" horiz-adv-x="1136" 
d="M154 432q0 48 12 90.5t37 78.5t70.5 57.5t105.5 21.5q47 0 99 -18.5t89.5 -41t84 -41t83.5 -18.5q42 0 66 30t24 68h156q0 -103 -54.5 -175t-170.5 -72q-67 0 -135 29.5t-125.5 59t-96.5 29.5q-42 0 -66 -30t-24 -68h-155z" />
    <glyph glyph-name="nbspace" unicode="&#xa0;" horiz-adv-x="1327" 
 />
    <glyph glyph-name="exclamdown" unicode="&#xa1;" horiz-adv-x="462" 
d="M119 903q0 47 33 81t79 34q47 0 80 -34t33 -81q0 -46 -33 -79t-80 -33q-46 0 -79 33t-33 79zM145 -348l19 979h137l18 -979h-174z" />
    <glyph glyph-name="cent" unicode="&#xa2;" 
d="M963 403l90 -116q-134 -128 -320 -146v-229h-125v229q-91 12 -174.5 55t-146 108.5t-100 157t-37.5 193.5q0 136 64 251t168 183t226 82v226h125v-228q166 -13 297 -131l-98 -110q-48 44 -116.5 70t-139.5 26q-154 0 -260.5 -107t-106.5 -262q0 -153 106 -259.5
t265 -106.5q81 0 158 31.5t125 82.5z" />
    <glyph glyph-name="sterling" unicode="&#xa3;" 
d="M98 0v129h162v471h-151v121h151v223q0 189 121.5 296.5t304.5 107.5q194 0 324 -127l-92 -111q-109 94 -230 94q-114 0 -191 -71.5t-77 -182.5v-229h407v-121h-407v-457h645v-143h-967z" />
    <glyph glyph-name="currency" unicode="&#xa4;" 
d="M205 133l-80 82l154 154q-74 96 -74 221t74 221l-154 158l80 80l155 -160q98 72 222 72q121 0 219 -72l157 160l80 -80l-155 -158q75 -97 75 -221t-75 -221l155 -156l-80 -80l-157 158q-98 -72 -219 -72q-124 0 -222 72zM352 590q0 -98 67.5 -167t162.5 -69t162 69
t67 167t-67 166.5t-162 68.5t-162.5 -68.5t-67.5 -166.5z" />
    <glyph glyph-name="yen" unicode="&#xa5;" 
d="M502 0v254h-283v111h283v137h-281v110h281v39l-439 676h185l256 -401q16 -24 35.5 -60t30.5 -60l12 -24q40 91 75 144l256 401h187l-438 -676v-39h280v-110h-280v-137h280v-111h-280v-254h-160z" />
    <glyph glyph-name="brokenbar" unicode="&#xa6;" horiz-adv-x="423" 
d="M147 786v861h129v-861h-129zM147 -389v985h129v-985h-129z" />
    <glyph glyph-name="section" unicode="&#xa7;" horiz-adv-x="1062" 
d="M815 584q0 109 -129 161l-274 105q-40 14 -56 14q-45 0 -75.5 -41t-30.5 -90q0 -121 164 -182l174 -66q13 -5 33.5 -13t31 -11.5t25 -6.5t27.5 -3q44 0 77 39.5t33 93.5zM131 90l74 121q57 -48 142 -80.5t177 -32.5q33 0 66 5t69.5 16.5t59 37t22.5 60.5q0 44 -37 67
t-141 60l-215 78q-134 48 -194 123t-60 180q0 74 39.5 135.5t97.5 85.5q-33 24 -51 64t-18 84q0 63 31 113t82 80t113 45.5t128 15.5q218 0 387 -103l-65 -121q-153 82 -320 82q-34 0 -65.5 -5t-62.5 -17t-49.5 -35t-18.5 -55q0 -47 36.5 -70t141.5 -61l211 -76
q137 -48 197.5 -123t60.5 -184q0 -71 -44 -133t-108 -82q38 -19 62 -60t24 -90q0 -56 -23.5 -100.5t-61 -73t-88.5 -47.5t-103 -27t-107 -8q-119 0 -224.5 38.5t-164.5 92.5z" />
    <glyph glyph-name="dieresis" unicode="&#xa8;" horiz-adv-x="696" 
d="M96 1260q0 38 27 65t65 27q37 0 64 -27t27 -65q0 -37 -27 -64t-64 -27q-38 0 -65 27t-27 64zM418 1260q0 38 28 65t66 27q37 0 63.5 -27t26.5 -65q0 -37 -26.5 -64t-63.5 -27q-38 0 -66 27t-28 64z" />
    <glyph glyph-name="copyright" unicode="&#xa9;" horiz-adv-x="1531" 
d="M82 664q0 139 54.5 265.5t146 218t218 146t265.5 54.5t265.5 -54.5t218 -146t146 -218t54.5 -265.5t-54.5 -265.5t-146 -218t-218 -146t-265.5 -54.5t-265.5 54.5t-218 146t-146 218t-54.5 265.5zM371 659q0 172 120.5 294t290.5 122q164 0 289 -119l-63 -63
q-99 90 -226 90q-128 0 -219.5 -94t-91.5 -230q0 -135 92 -228t221 -93q138 0 250 121l64 -66q-62 -68 -144 -106.5t-172 -38.5q-170 0 -290.5 120.5t-120.5 290.5zM164 664q0 -123 48 -235.5t128.5 -194.5t192 -130.5t233.5 -48.5q123 0 234.5 48.5t192 130.5t128 194.5
t47.5 235.5q0 164 -80 304t-219 222t-303 82q-122 0 -233.5 -48.5t-192 -130t-128.5 -194t-48 -235.5z" />
    <glyph glyph-name="ordfeminine" unicode="&#xaa;" horiz-adv-x="753" 
d="M188 877q0 -48 37.5 -72.5t93.5 -24.5q59 0 103.5 17t66.5 41.5t32.5 46.5t10.5 39v61q-58 10 -122 10q-58 0 -105.5 -10.5t-82 -38t-34.5 -69.5zM59 870q0 62 31 108.5t83 71.5t111 36.5t126 11.5q54 0 114 -11q-7 70 -50.5 107t-113.5 37q-51 0 -98.5 -14.5
t-69.5 -28.5l-22 -14l-53 96q4 3 11 8.5t31.5 19t52 23.5t71 18.5t88.5 8.5q139 0 213.5 -81.5t74.5 -244.5v-344h-127v72q-94 -86 -235 -86q-101 0 -169.5 55t-68.5 151z" />
    <glyph glyph-name="guillemotleft" unicode="&#xab;" horiz-adv-x="923" 
d="M68 457v80l348 342l80 -78l-287 -303l285 -305l-78 -78zM424 457v80l350 342l78 -78l-285 -303l285 -305l-78 -78z" />
    <glyph glyph-name="logicalnot" unicode="&#xac;" 
d="M893 223v328h-768v133h913l-2 -461h-143z" />
    <glyph glyph-name="registered" unicode="&#xae;" horiz-adv-x="1531" 
d="M82 664q0 139 54.5 265.5t146 218t218 146t265.5 54.5t265.5 -54.5t218 -146t146 -218t54.5 -265.5t-54.5 -265.5t-146 -218t-218 -146t-265.5 -54.5t-265.5 54.5t-218 146t-146 218t-54.5 265.5zM473 258v807h344q135 0 230.5 -96t95.5 -230q0 -91 -42.5 -165.5
t-115.5 -118.5l150 -197h-123l-121 162q-33 -8 -74 -8h-248v-154h-96zM569 510h248q95 0 160 66t65 163q0 95 -65.5 162.5t-159.5 67.5h-248v-459zM164 664q0 -123 48 -235.5t128.5 -194.5t192 -130.5t233.5 -48.5q123 0 234.5 48.5t192 130.5t128 194.5t47.5 235.5
q0 164 -80 304t-219 222t-303 82q-122 0 -233.5 -48.5t-192 -130t-128.5 -194t-48 -235.5z" />
    <glyph glyph-name="macron" unicode="&#xaf;" horiz-adv-x="696" 
d="M143 1167v121h410v-121h-410z" />
    <glyph glyph-name="degree" unicode="&#xb0;" horiz-adv-x="743" 
d="M82 1067q0 118 83 201.5t200 83.5t200.5 -83.5t83.5 -201.5q0 -116 -83.5 -199.5t-200.5 -83.5t-200 83.5t-83 199.5zM209 1067q0 -65 46 -113.5t110 -48.5t109.5 48.5t45.5 113.5q0 66 -45.5 114t-109.5 48t-110 -48t-46 -114z" />
    <glyph glyph-name="plusminus" unicode="&#xb1;" 
d="M125 61v134h913v-134h-913zM125 598v133h383v305h143v-305h387v-133h-387v-305h-143v305h-383z" />
    <glyph glyph-name="twosuperior" unicode="&#xb2;" horiz-adv-x="792" 
d="M63 596v96q66 58 101 89t87.5 78.5t79.5 74t65 65t56.5 62t41.5 54.5t33 54t17 48t7 49q0 70 -46.5 114.5t-131.5 44.5q-133 0 -228 -114l-73 92q61 68 133 106.5t178 38.5q143 0 226 -76.5t83 -197.5q0 -70 -30.5 -139.5t-92.5 -140.5t-131 -133.5t-170 -141.5h445v-123
h-650z" />
    <glyph glyph-name="threesuperior" unicode="&#xb3;" horiz-adv-x="821" 
d="M61 696l70 95q89 -84 234 -84q108 0 167.5 59.5t59.5 140.5q0 76 -54.5 129.5t-158.5 53.5q-72 0 -137 -41l-52 79l314 287h-410v121h592v-106l-256 -242h8q125 0 211 -84t86 -203q0 -130 -99.5 -223.5t-266.5 -93.5q-85 0 -168 27t-140 85z" />
    <glyph glyph-name="acute" unicode="&#xb4;" horiz-adv-x="696" 
d="M166 1157l166 273h174l-193 -273h-147z" />
    <glyph glyph-name="mu" unicode="&#xb5;" horiz-adv-x="1122" 
d="M123 -281v1278h156v-563q0 -160 67.5 -231.5t179.5 -71.5q56 0 106.5 20.5t93.5 61.5t68 113.5t25 167.5v503h158v-438q0 -51 1 -83.5t8 -97.5t20 -112.5t40.5 -103.5t65.5 -96l-100 -107q-114 110 -140 229q-103 -208 -344 -208q-166 0 -249 110v-371h-156z" />
    <glyph glyph-name="paragraph" unicode="&#xb6;" horiz-adv-x="1099" 
d="M530 0v526q-187 14 -307.5 118t-120.5 282q0 166 125.5 283.5t302.5 117.5h404v-1327h-123v1208h-158v-1208h-123z" />
    <glyph glyph-name="periodcentered" unicode="&#xb7;" horiz-adv-x="333" 
d="M55 578q0 46 33.5 79t79.5 33t78.5 -33t32.5 -79q0 -47 -32.5 -80t-78.5 -33q-47 0 -80 33t-33 80z" />
    <glyph glyph-name="cedilla" unicode="&#xb8;" horiz-adv-x="696" 
d="M106 -379l46 74q77 -49 170 -49q65 0 104 32t39 72q0 34 -26.5 52t-63.5 18q-36 0 -70.5 -16.5t-50.5 -39.5l-88 33l125 209h100l-76 -131q44 19 84 19q74 0 124 -38t50 -102q0 -82 -72 -136t-179 -54q-130 0 -216 57z" />
    <glyph glyph-name="onesuperior" unicode="&#xb9;" horiz-adv-x="655" 
d="M330 596v760l-215 -158l-60 94l305 244h103v-940h-133z" />
    <glyph glyph-name="ordmasculine" unicode="&#xba;" horiz-adv-x="808" 
d="M59 1006q0 141 101 241.5t243 100.5q144 0 245.5 -100.5t101.5 -241.5t-101.5 -241.5t-245.5 -100.5q-142 0 -243 100.5t-101 241.5zM186 1006q0 -90 64 -154t153 -64q91 0 154.5 63.5t63.5 154.5t-63.5 154t-154.5 63q-90 0 -153.5 -63.5t-63.5 -153.5z" />
    <glyph glyph-name="guillemotright" unicode="&#xbb;" horiz-adv-x="923" 
d="M72 193l284 305l-284 303l78 78l350 -342v-80l-350 -342zM430 193l285 305l-285 303l78 78l348 -342v-80l-348 -342z" />
    <glyph glyph-name="onequarter" unicode="&#xbc;" horiz-adv-x="1832" 
d="M330 391v760l-215 -158l-60 94l305 244h103v-940h-133zM455 20l815 1358l90 -51l-815 -1358zM1466 0v199h-440v96l387 659l113 -55l-344 -577h284v213h136v-213h110v-123h-110v-199h-136z" />
    <glyph glyph-name="onehalf" unicode="&#xbd;" horiz-adv-x="1980" 
d="M1243 0v94q98 86 148.5 131t118 108.5t100 100.5t65.5 82.5t45.5 81.5t12.5 72q0 69 -47 113t-132 44q-132 0 -229 -112l-74 92q63 68 134.5 105.5t177.5 37.5q144 0 227.5 -75.5t83.5 -196.5q0 -47 -14 -93.5t-46.5 -95t-65 -88.5t-91 -95t-102 -93t-119.5 -102
q76 10 123 10h335v-121h-651zM330 391v760l-215 -158l-60 94l305 244h103v-940h-133zM455 20l815 1358l90 -51l-815 -1358z" />
    <glyph glyph-name="threequarters" unicode="&#xbe;" horiz-adv-x="1982" 
d="M629 20l815 1358l90 -51l-815 -1358zM1642 0v199h-440v96l387 659l113 -55l-344 -577h284v213h136v-213h110v-123h-110v-199h-136zM61 492l70 94q89 -84 234 -84q108 0 167.5 59.5t59.5 140.5q0 76 -54.5 129.5t-158.5 53.5q-72 0 -137 -41l-52 80l314 286h-410v121h592
v-106l-256 -242h8q125 0 211 -84t86 -203q0 -130 -99.5 -223.5t-266.5 -93.5q-84 0 -167.5 27t-140.5 86z" />
    <glyph glyph-name="questiondown" unicode="&#xbf;" horiz-adv-x="976" 
d="M106 72q0 157 100.5 270t252.5 133l16 178h139l17 -282q-76 0 -138 -17.5t-102.5 -47t-68.5 -69t-40 -81.5t-12 -86q0 -106 80 -185.5t193 -79.5q88 0 158.5 49t103.5 130l133 -64q-48 -125 -155 -196.5t-251 -71.5q-189 0 -307.5 122.5t-118.5 297.5zM430 909
q0 46 34 79.5t81 33.5t79.5 -33.5t32.5 -79.5q0 -47 -33 -80.5t-79 -33.5q-47 0 -81 33.5t-34 80.5z" />
    <glyph glyph-name="Agrave" unicode="&#xc0;" horiz-adv-x="1427" 
d="M16 0l627 1327h141l627 -1327h-170l-123 258h-811l-123 -258h-168zM369 393h688l-223 467q-26 55 -56.5 124.5t-47.5 111.5l-17 43q-60 -158 -119 -281zM639 1430l-193 272h175l165 -272h-147z" />
    <glyph glyph-name="Aacute" unicode="&#xc1;" horiz-adv-x="1427" 
d="M16 0l627 1327h141l627 -1327h-170l-123 258h-811l-123 -258h-168zM369 393h688l-223 467q-26 55 -56.5 124.5t-47.5 111.5l-17 43q-60 -158 -119 -281zM635 1430l166 272h174l-193 -272h-147z" />
    <glyph glyph-name="Acircumflex" unicode="&#xc2;" horiz-adv-x="1427" 
d="M16 0l627 1327h141l627 -1327h-170l-123 258h-811l-123 -258h-168zM369 393h688l-223 467q-26 55 -56.5 124.5t-47.5 111.5l-17 43q-60 -158 -119 -281zM449 1430l180 272h174l180 -272h-133l-135 178l-135 -178h-131z" />
    <glyph glyph-name="Atilde" unicode="&#xc3;" horiz-adv-x="1427" 
d="M16 0l627 1327h141l627 -1327h-170l-123 258h-811l-123 -258h-168zM369 393h688l-223 467q-26 55 -56.5 124.5t-47.5 111.5l-17 43q-60 -158 -119 -281zM446 1401q0 92 40.5 150.5t105.5 58.5q34 0 71 -15t62.5 -33.5t53.5 -33.5t46 -15q31 0 45.5 27.5t14.5 69.5h98
q0 -92 -40 -150.5t-105 -58.5q-42 0 -88.5 24t-84.5 48t-59 24q-59 0 -59 -96h-101z" />
    <glyph glyph-name="Adieresis" unicode="&#xc4;" horiz-adv-x="1427" 
d="M16 0l627 1327h141l627 -1327h-170l-123 258h-811l-123 -258h-168zM369 393h688l-223 467q-26 55 -56.5 124.5t-47.5 111.5l-17 43q-60 -158 -119 -281zM461 1511q0 38 27 65.5t65 27.5q37 0 63.5 -27.5t26.5 -65.5q0 -37 -26.5 -63.5t-63.5 -26.5q-38 0 -65 26.5
t-27 63.5zM782 1511q0 38 28.5 65.5t66.5 27.5q37 0 63.5 -27.5t26.5 -65.5q0 -37 -26.5 -63.5t-63.5 -26.5q-38 0 -66.5 26.5t-28.5 63.5z" />
    <glyph glyph-name="Aring" unicode="&#xc5;" horiz-adv-x="1427" 
d="M16 0l627 1327h141l627 -1327h-170l-123 258h-811l-123 -258h-168zM369 393h688l-223 467q-26 55 -56.5 124.5t-47.5 111.5l-17 43q-60 -158 -119 -281zM510 1587q0 84 59.5 143.5t143.5 59.5t143 -59.5t59 -143.5q0 -85 -59 -145t-143 -60q-85 0 -144 60t-59 145z
M602 1587q0 -48 32 -83.5t79 -35.5q46 0 78 35.5t32 83.5q0 47 -32 82t-78 35t-78.5 -35t-32.5 -82z" />
    <glyph glyph-name="AE" unicode="&#xc6;" horiz-adv-x="1937" 
d="M16 0l863 1327h956v-145h-725v-400h672v-143h-672v-494h754v-145h-918v258h-581l-166 -258h-183zM451 393h495v787q-51 -95 -108 -185z" />
    <glyph glyph-name="Ccedilla" unicode="&#xc7;" horiz-adv-x="1314" 
d="M524 -379l45 74q77 -49 170 -49q65 0 104.5 32t39.5 72q0 34 -26.5 52t-63.5 18q-36 0 -70.5 -16.5t-50.5 -39.5l-88 33l112 189q-171 21 -308.5 115.5t-215.5 242.5t-78 320q0 139 53.5 265.5t145 218.5t220 146t271.5 54q131 0 249.5 -45.5t211.5 -126.5l-100 -113
q-150 135 -350 135q-149 0 -270.5 -71.5t-190 -194t-68.5 -268.5q0 -145 68 -267.5t188 -195t264 -72.5q112 0 212.5 43t175.5 121l104 -113q-94 -94 -218.5 -146.5t-266.5 -53.5l-60 -105q44 19 84 19q74 0 124 -38t50 -102q0 -82 -72 -136t-180 -54q-129 0 -215 57z" />
    <glyph glyph-name="Egrave" unicode="&#xc8;" horiz-adv-x="1263" 
d="M156 0v1327h1005v-145h-842v-402h787v-143h-787v-492h871v-145h-1034zM651 1430l-192 272h174l166 -272h-148z" />
    <glyph glyph-name="Eacute" unicode="&#xc9;" horiz-adv-x="1263" 
d="M156 0v1327h1005v-145h-842v-402h787v-143h-787v-492h871v-145h-1034zM541 1430l166 272h174l-193 -272h-147z" />
    <glyph glyph-name="Ecircumflex" unicode="&#xca;" horiz-adv-x="1263" 
d="M156 0v1327h1005v-145h-842v-402h787v-143h-787v-492h871v-145h-1034zM422 1430l180 272h174l180 -272h-133l-135 178l-135 -178h-131z" />
    <glyph glyph-name="Edieresis" unicode="&#xcb;" horiz-adv-x="1263" 
d="M156 0v1327h1005v-145h-842v-402h787v-143h-787v-492h871v-145h-1034zM438 1530q0 38 27 65t65 27q37 0 64 -27t27 -65q0 -37 -27 -63.5t-64 -26.5q-38 0 -65 26.5t-27 63.5zM760 1530q0 38 28 65t66 27q37 0 63.5 -27t26.5 -65q0 -37 -26.5 -63.5t-63.5 -26.5
q-38 0 -66 26.5t-28 63.5z" />
    <glyph glyph-name="Igrave" unicode="&#xcc;" horiz-adv-x="475" 
d="M156 0v1327h163v-1327h-163zM186 1430l-192 272h174l166 -272h-148z" />
    <glyph glyph-name="Iacute" unicode="&#xcd;" horiz-adv-x="475" 
d="M156 0v1327h163v-1327h-163zM141 1430l166 272h174l-192 -272h-148z" />
    <glyph glyph-name="Icircumflex" unicode="&#xce;" horiz-adv-x="475" 
d="M156 0v1327h163v-1327h-163zM-29 1430l181 272h174l180 -272h-133l-135 178l-136 -178h-131z" />
    <glyph glyph-name="Idieresis" unicode="&#xcf;" horiz-adv-x="475" 
d="M156 0v1327h163v-1327h-163zM-14 1511q0 38 27 65.5t65 27.5q37 0 63.5 -27.5t26.5 -65.5q0 -37 -26.5 -63.5t-63.5 -26.5q-38 0 -65 26.5t-27 63.5zM307 1511q0 38 28 65.5t66 27.5q37 0 64 -27.5t27 -65.5q0 -37 -27 -63.5t-64 -26.5q-38 0 -66 26.5t-28 63.5z" />
    <glyph glyph-name="Eth" unicode="&#xd0;" horiz-adv-x="1447" 
d="M156 0v616h-189v127h189v584h516q144 0 271.5 -52.5t217 -142t141.5 -211.5t52 -257t-52 -257.5t-141.5 -212t-217 -142t-271.5 -52.5h-516zM319 145h349q145 0 263 69t184.5 188t66.5 262t-66.5 261.5t-184.5 187.5t-263 69h-349v-439h377v-127h-377v-471z" />
    <glyph glyph-name="Ntilde" unicode="&#xd1;" horiz-adv-x="1441" 
d="M156 0v1327h159l635 -823q39 -50 82 -113t66 -101l24 -38v1075h164v-1327h-164l-614 797q-44 58 -91.5 125.5t-72.5 105.5l-25 39v-1067h-163zM453 1419q0 92 40 150.5t105 58.5q43 0 89.5 -24t84 -48t59.5 -24q31 0 45.5 27.5t14.5 68.5h98q0 -92 -40 -150.5t-105 -58.5
q-42 0 -88.5 24t-84.5 48.5t-59 24.5q-59 0 -59 -97h-100z" />
    <glyph glyph-name="Ograve" unicode="&#xd2;" horiz-adv-x="1570" 
d="M786 129q144 0 264 72.5t188.5 195t68.5 267.5q0 146 -68.5 268.5t-188.5 194t-264 71.5t-263.5 -71.5t-188 -194t-68.5 -268.5q0 -145 68 -267.5t188 -195t264 -72.5zM786 1348q192 0 351.5 -92t250.5 -249t91 -343q0 -187 -91 -344t-250.5 -248.5t-351.5 -91.5
q-144 0 -272.5 54t-220.5 145.5t-145.5 218t-53.5 266.5q0 139 53.5 265.5t145.5 218.5t220.5 146t272.5 54zM735 1430l-192 272h174l166 -272h-148z" />
    <glyph glyph-name="Oacute" unicode="&#xd3;" horiz-adv-x="1570" 
d="M786 129q144 0 264 72.5t188.5 195t68.5 267.5q0 146 -68.5 268.5t-188.5 194t-264 71.5t-263.5 -71.5t-188 -194t-68.5 -268.5q0 -145 68 -267.5t188 -195t264 -72.5zM786 1348q192 0 351.5 -92t250.5 -249t91 -343q0 -187 -91 -344t-250.5 -248.5t-351.5 -91.5
q-144 0 -272.5 54t-220.5 145.5t-145.5 218t-53.5 266.5q0 139 53.5 265.5t145.5 218.5t220.5 146t272.5 54zM692 1430l166 272h174l-192 -272h-148z" />
    <glyph glyph-name="Ocircumflex" unicode="&#xd4;" horiz-adv-x="1570" 
d="M786 129q144 0 264 72.5t188.5 195t68.5 267.5q0 146 -68.5 268.5t-188.5 194t-264 71.5t-263.5 -71.5t-188 -194t-68.5 -268.5q0 -145 68 -267.5t188 -195t264 -72.5zM786 1348q192 0 351.5 -92t250.5 -249t91 -343q0 -187 -91 -344t-250.5 -248.5t-351.5 -91.5
q-144 0 -272.5 54t-220.5 145.5t-145.5 218t-53.5 266.5q0 139 53.5 265.5t145.5 218.5t220.5 146t272.5 54zM522 1430l180 272h175l180 -272h-133l-136 178l-135 -178h-131z" />
    <glyph glyph-name="Otilde" unicode="&#xd5;" horiz-adv-x="1570" 
d="M786 129q144 0 264 72.5t188.5 195t68.5 267.5q0 146 -68.5 268.5t-188.5 194t-264 71.5t-263.5 -71.5t-188 -194t-68.5 -268.5q0 -145 68 -267.5t188 -195t264 -72.5zM786 1348q192 0 351.5 -92t250.5 -249t91 -343q0 -187 -91 -344t-250.5 -248.5t-351.5 -91.5
q-144 0 -272.5 54t-220.5 145.5t-145.5 218t-53.5 266.5q0 139 53.5 265.5t145.5 218.5t220.5 146t272.5 54zM518 1419q0 92 40.5 150.5t105.5 58.5q43 0 89.5 -24t84 -48t59.5 -24q59 0 59 96h99q0 -92 -40.5 -150.5t-105.5 -58.5q-33 0 -70 15t-63 33.5t-53.5 33.5
t-44.5 15q-60 0 -60 -97h-100z" />
    <glyph glyph-name="Odieresis" unicode="&#xd6;" horiz-adv-x="1570" 
d="M786 129q144 0 264 72.5t188.5 195t68.5 267.5q0 146 -68.5 268.5t-188.5 194t-264 71.5t-263.5 -71.5t-188 -194t-68.5 -268.5q0 -145 68 -267.5t188 -195t264 -72.5zM786 1348q192 0 351.5 -92t250.5 -249t91 -343q0 -187 -91 -344t-250.5 -248.5t-351.5 -91.5
q-144 0 -272.5 54t-220.5 145.5t-145.5 218t-53.5 266.5q0 139 53.5 265.5t145.5 218.5t220.5 146t272.5 54zM535 1511q0 38 27 65.5t65 27.5q37 0 63.5 -27.5t26.5 -65.5q0 -37 -26.5 -63.5t-63.5 -26.5q-38 0 -65 26.5t-27 63.5zM856 1511q0 38 28 65.5t66 27.5
q37 0 63.5 -27.5t26.5 -65.5q0 -37 -26.5 -63.5t-63.5 -26.5q-38 0 -66 26.5t-28 63.5z" />
    <glyph glyph-name="multiply" unicode="&#xd7;" 
d="M246 109l-96 98l333 334l-338 338l99 94l336 -336l338 336l100 -96l-340 -336l336 -334l-99 -98l-335 331z" />
    <glyph glyph-name="Oslash" unicode="&#xd8;" horiz-adv-x="1570" 
d="M786 1348q167 0 312 -74l114 190l82 -49l-112 -188q137 -94 217 -242.5t80 -320.5q0 -187 -91 -344t-250.5 -248.5t-351.5 -91.5q-169 0 -313 69l-113 -188l-81 47l112 190q-138 93 -217.5 242t-79.5 324q0 139 53.5 265.5t145.5 218.5t220.5 146t272.5 54zM266 664
q0 -129 55.5 -243t151.5 -188l547 910q-110 55 -234 55q-144 0 -263.5 -71.5t-188 -194t-68.5 -268.5zM786 129q144 0 264 72.5t188.5 195t68.5 267.5q0 128 -55.5 240.5t-151.5 187.5l-545 -908q110 -55 231 -55z" />
    <glyph glyph-name="Ugrave" unicode="&#xd9;" horiz-adv-x="1368" 
d="M684 -20q-151 0 -275.5 65t-199 187.5t-74.5 279.5v815h164v-815q0 -167 112 -275t273 -108q162 0 273.5 107.5t111.5 275.5v815h164v-815q0 -157 -75 -279.5t-199.5 -187.5t-274.5 -65zM653 1430l-192 272h174l166 -272h-148z" />
    <glyph glyph-name="Uacute" unicode="&#xda;" horiz-adv-x="1368" 
d="M684 -20q-151 0 -275.5 65t-199 187.5t-74.5 279.5v815h164v-815q0 -167 112 -275t273 -108q162 0 273.5 107.5t111.5 275.5v815h164v-815q0 -157 -75 -279.5t-199.5 -187.5t-274.5 -65zM561 1430l166 272h174l-192 -272h-148z" />
    <glyph glyph-name="Ucircumflex" unicode="&#xdb;" horiz-adv-x="1366" 
d="M684 -20q-151 0 -275.5 65t-199 187.5t-74.5 279.5v815h164v-815q0 -167 112 -275t273 -108q162 0 273.5 107.5t111.5 275.5v815h164v-815q0 -157 -75 -279.5t-199.5 -187.5t-274.5 -65zM420 1430l180 272h174l180 -272h-133l-135 178l-135 -178h-131z" />
    <glyph glyph-name="Udieresis" unicode="&#xdc;" horiz-adv-x="1366" 
d="M684 -20q-151 0 -275.5 65t-199 187.5t-74.5 279.5v815h164v-815q0 -167 112 -275t273 -108q162 0 273.5 107.5t111.5 275.5v815h164v-815q0 -157 -75 -279.5t-199.5 -187.5t-274.5 -65zM432 1511q0 38 27 65.5t65 27.5q37 0 63.5 -27.5t26.5 -65.5q0 -37 -26.5 -63.5
t-63.5 -26.5q-38 0 -65 26.5t-27 63.5zM754 1511q0 38 28 65.5t66 27.5q37 0 63.5 -27.5t26.5 -65.5q0 -37 -26.5 -63.5t-63.5 -26.5q-38 0 -66 26.5t-28 63.5z" />
    <glyph glyph-name="Yacute" unicode="&#xdd;" horiz-adv-x="1275" 
d="M557 0v629l-537 698h193l268 -340q33 -41 72.5 -96t62.5 -90l23 -35q90 131 160 221l264 340h192l-534 -696v-631h-164zM541 1430l166 272h174l-193 -272h-147z" />
    <glyph glyph-name="Thorn" unicode="&#xde;" horiz-adv-x="1218" 
d="M156 0v1327h163v-217h361q121 0 223.5 -59t162.5 -161t60 -222q0 -183 -131 -313t-315 -130h-361v-225h-163zM319 371h347q121 0 205.5 87.5t84.5 209.5t-85 209.5t-205 87.5h-347v-594z" />
    <glyph glyph-name="germandbls" unicode="&#xdf;" horiz-adv-x="1120" 
d="M156 0v924q0 207 99.5 315.5t266.5 108.5q162 0 272.5 -108.5t110.5 -264.5q0 -210 -133 -299q126 -22 208.5 -118.5t82.5 -221.5q0 -157 -106.5 -256.5t-260.5 -99.5q-140 0 -235 81l65 132q64 -64 154 -64q93 0 157 65.5t64 157.5q0 100 -74.5 165t-218.5 65h-69v123
h14q34 2 66.5 15.5t63 41t49 77t18.5 115.5q0 102 -62.5 172t-161.5 70q-96 0 -155.5 -69.5t-59.5 -188.5v-938h-155z" />
    <glyph glyph-name="agrave" unicode="&#xe0;" horiz-adv-x="1220" 
d="M84 498q0 142 62.5 261t173.5 189t245 70q115 0 210.5 -51t154.5 -142v172h155v-997h-155v170q-58 -91 -153.5 -140.5t-211.5 -49.5q-134 0 -245 69.5t-173.5 188.5t-62.5 260zM244 498q0 -156 98.5 -261.5t247.5 -105.5q144 0 242 104.5t98 262.5q0 156 -97 262
t-243 106q-148 0 -247 -106t-99 -262zM530 1157l-192 273h174l166 -273h-148z" />
    <glyph glyph-name="aacute" unicode="&#xe1;" horiz-adv-x="1220" 
d="M84 498q0 142 62.5 261t173.5 189t245 70q115 0 210.5 -51t154.5 -142v172h155v-997h-155v170q-58 -91 -153.5 -140.5t-211.5 -49.5q-134 0 -245 69.5t-173.5 188.5t-62.5 260zM244 498q0 -156 98.5 -261.5t247.5 -105.5q144 0 242 104.5t98 262.5q0 156 -97 262
t-243 106q-148 0 -247 -106t-99 -262zM465 1157l166 273h174l-193 -273h-147z" />
    <glyph glyph-name="acircumflex" unicode="&#xe2;" horiz-adv-x="1220" 
d="M84 498q0 142 62.5 261t173.5 189t245 70q115 0 210.5 -51t154.5 -142v172h155v-997h-155v170q-58 -91 -153.5 -140.5t-211.5 -49.5q-134 0 -245 69.5t-173.5 188.5t-62.5 260zM244 498q0 -156 98.5 -261.5t247.5 -105.5q144 0 242 104.5t98 262.5q0 156 -97 262
t-243 106q-148 0 -247 -106t-99 -262zM328 1145l180 272h174l180 -272h-133l-135 178l-135 -178h-131z" />
    <glyph glyph-name="atilde" unicode="&#xe3;" horiz-adv-x="1220" 
d="M84 498q0 142 62.5 261t173.5 189t245 70q115 0 210.5 -51t154.5 -142v172h155v-997h-155v170q-58 -91 -153.5 -140.5t-211.5 -49.5q-134 0 -245 69.5t-173.5 188.5t-62.5 260zM244 498q0 -156 98.5 -261.5t247.5 -105.5q144 0 242 104.5t98 262.5q0 156 -97 262
t-243 106q-148 0 -247 -106t-99 -262zM317 1153q0 92 40.5 150.5t105.5 58.5q43 0 89.5 -24t84 -48t59.5 -24q31 0 45.5 27.5t14.5 68.5h98q0 -92 -40 -150.5t-105 -58.5q-42 0 -88.5 24t-84.5 48t-59 24q-59 0 -59 -96h-101z" />
    <glyph glyph-name="adieresis" unicode="&#xe4;" horiz-adv-x="1220" 
d="M84 498q0 142 62.5 261t173.5 189t245 70q115 0 210.5 -51t154.5 -142v172h155v-997h-155v170q-58 -91 -153.5 -140.5t-211.5 -49.5q-134 0 -245 69.5t-173.5 188.5t-62.5 260zM244 498q0 -156 98.5 -261.5t247.5 -105.5q144 0 242 104.5t98 262.5q0 156 -97 262
t-243 106q-148 0 -247 -106t-99 -262zM332 1260q0 38 27 65t65 27q37 0 63.5 -27t26.5 -65q0 -37 -26.5 -64t-63.5 -27q-38 0 -65 27t-27 64zM653 1260q0 38 28 65t67 27q37 0 63.5 -27t26.5 -65q0 -37 -26.5 -64t-63.5 -27q-38 0 -66.5 27t-28.5 64z" />
    <glyph glyph-name="aring" unicode="&#xe5;" horiz-adv-x="1220" 
d="M84 498q0 142 62.5 261t173.5 189t245 70q115 0 210.5 -51t154.5 -142v172h155v-997h-155v170q-58 -91 -153.5 -140.5t-211.5 -49.5q-134 0 -245 69.5t-173.5 188.5t-62.5 260zM244 498q0 -156 98.5 -261.5t247.5 -105.5q144 0 242 104.5t98 262.5q0 156 -97 262
t-243 106q-148 0 -247 -106t-99 -262zM397 1325q0 84 59.5 143.5t143.5 59.5t143.5 -59.5t59.5 -143.5q0 -85 -59 -145t-144 -60t-144 60t-59 145zM489 1325q0 -48 32 -83.5t79 -35.5t79 35.5t32 83.5q0 47 -32.5 82t-78.5 35t-78.5 -35t-32.5 -82z" />
    <glyph glyph-name="ae" unicode="&#xe6;" horiz-adv-x="1875" 
d="M84 272q0 92 43.5 159.5t118.5 104t160.5 53.5t183.5 17q133 0 231 -10q-4 138 -79.5 210.5t-204.5 72.5q-55 0 -107 -8.5t-87 -20.5t-62 -24t-39 -20l-13 -9l-63 112q5 4 15.5 11.5t45.5 26.5t74.5 33t102 26t128.5 12q145 0 245 -61.5t147 -178.5q64 110 172.5 175
t236.5 65q130 0 240.5 -69.5t174.5 -188t64 -256.5l-4 -64h-813q20 -143 126 -232t249 -89q84 0 161.5 30.5t135.5 83.5l70 -114q-75 -66 -172 -102.5t-203 -36.5q-147 0 -268 68.5t-181 187.5q-39 -82 -112 -140.5t-164 -87t-193 -28.5q-163 0 -261.5 77.5t-98.5 214.5z
M240 285q0 -83 60.5 -125.5t152.5 -42.5q180 0 279 92.5t99 236.5v35q-61 6 -241 6q-68 0 -127 -10.5t-111 -32.5t-82 -63t-30 -96zM995 563h660q-13 136 -107 226t-221 90q-124 0 -218.5 -90.5t-113.5 -225.5z" />
    <glyph glyph-name="ccedilla" unicode="&#xe7;" horiz-adv-x="1038" 
d="M371 -379l45 74q77 -49 170 -49q65 0 104 32t39 72q0 34 -26.5 52t-63.5 18q-36 0 -70.5 -16.5t-50.5 -39.5l-88 33l111 187q-194 25 -325.5 171.5t-131.5 342.5q0 106 41.5 202t112 166t167.5 111t203 41q101 0 194 -36.5t165 -100.5l-101 -111q-103 96 -256 96
q-154 0 -260 -106.5t-106 -261.5q0 -154 106 -260.5t264 -106.5q83 0 157.5 30.5t125.5 84.5l92 -115q-143 -140 -350 -149l-59 -107q44 19 84 19q74 0 124 -38t50 -102q0 -82 -72 -136t-180 -54q-129 0 -215 57z" />
    <glyph glyph-name="egrave" unicode="&#xe8;" horiz-adv-x="1146" 
d="M246 563h659q-13 136 -106 226t-221 90q-124 0 -218.5 -90.5t-113.5 -225.5zM84 498q0 141 66.5 261t181.5 189.5t252 69.5q130 0 240.5 -69.5t174.5 -187.5t64 -255l-4 -66h-811q18 -143 120.5 -231t241.5 -88q180 0 308 115l73 -113q-168 -143 -381 -143
q-142 0 -262 64t-192 184t-72 270zM520 1157l-192 273h174l166 -273h-148z" />
    <glyph glyph-name="eacute" unicode="&#xe9;" horiz-adv-x="1146" 
d="M246 563h659q-13 136 -106 226t-221 90q-124 0 -218.5 -90.5t-113.5 -225.5zM84 498q0 141 66.5 261t181.5 189.5t252 69.5q130 0 240.5 -69.5t174.5 -187.5t64 -255l-4 -66h-811q18 -143 120.5 -231t241.5 -88q180 0 308 115l73 -113q-168 -143 -381 -143
q-142 0 -262 64t-192 184t-72 270zM487 1157l166 273h174l-192 -273h-148z" />
    <glyph glyph-name="ecircumflex" unicode="&#xea;" horiz-adv-x="1146" 
d="M246 563h659q-13 136 -106 226t-221 90q-124 0 -218.5 -90.5t-113.5 -225.5zM84 498q0 141 66.5 261t181.5 189.5t252 69.5q130 0 240.5 -69.5t174.5 -187.5t64 -255l-4 -66h-811q18 -143 120.5 -231t241.5 -88q180 0 308 115l73 -113q-168 -143 -381 -143
q-142 0 -262 64t-192 184t-72 270zM299 1145l180 272h174l181 -272h-134l-135 178l-135 -178h-131z" />
    <glyph glyph-name="edieresis" unicode="&#xeb;" horiz-adv-x="1146" 
d="M246 563h659q-13 136 -106 226t-221 90q-124 0 -218.5 -90.5t-113.5 -225.5zM84 498q0 141 66.5 261t181.5 189.5t252 69.5q130 0 240.5 -69.5t174.5 -187.5t64 -255l-4 -66h-811q18 -143 120.5 -231t241.5 -88q180 0 308 115l73 -113q-168 -143 -381 -143
q-142 0 -262 64t-192 184t-72 270zM315 1260q0 38 27.5 65t65.5 27q37 0 63.5 -27t26.5 -65q0 -37 -26.5 -64t-63.5 -27q-38 0 -65.5 27t-27.5 64zM637 1260q0 38 28 65t66 27q37 0 63.5 -27t26.5 -65q0 -37 -26.5 -64t-63.5 -27q-38 0 -66 27t-28 64z" />
    <glyph glyph-name="igrave" unicode="&#xec;" horiz-adv-x="425" 
d="M166 1157l-193 273h174l166 -273h-147zM135 0v997h156v-997h-156z" />
    <glyph glyph-name="iacute" unicode="&#xed;" horiz-adv-x="425" 
d="M111 1157l165 273h175l-193 -273h-147zM135 0v997h156v-997h-156z" />
    <glyph glyph-name="icircumflex" unicode="&#xee;" horiz-adv-x="425" 
d="M135 0v997h156v-997h-156zM-53 1145l180 272h174l180 -272h-133l-135 178l-135 -178h-131z" />
    <glyph glyph-name="idieresis" unicode="&#xef;" horiz-adv-x="425" 
d="M-39 1260q0 38 27 65t65 27q37 0 63.5 -27t26.5 -65q0 -37 -26.5 -64t-63.5 -27q-38 0 -65 27t-27 64zM283 1260q0 38 28 65t66 27q37 0 63.5 -27t26.5 -65q0 -37 -26.5 -64t-63.5 -27q-38 0 -66 27t-28 64zM135 0v997h156v-997h-156z" />
    <glyph glyph-name="eth" unicode="&#xf0;" horiz-adv-x="1216" 
d="M84 498q0 102 41 194.5t111 159.5t166 107t202 40q132 0 223 -71q-102 132 -260 227l-198 -86l-37 76l135 59q-69 31 -158 58l66 96q127 -36 235 -92l207 90l37 -74l-152 -68q84 -57 159 -132t137 -164.5t98.5 -195.5t36.5 -212q0 -142 -67.5 -263.5t-189 -194
t-268.5 -72.5q-107 0 -203.5 41t-167 110t-112 165t-41.5 202zM244 498q0 -151 106 -259t258 -108t258.5 108t106.5 259q0 145 -106.5 247.5t-258.5 102.5t-258 -102.5t-106 -247.5z" />
    <glyph glyph-name="ntilde" unicode="&#xf1;" horiz-adv-x="1112" 
d="M135 0v997h156v-159q113 180 340 180q183 0 274.5 -108t91.5 -302v-608h-155v584q0 140 -58 211t-194 71q-123 0 -211 -87t-88 -220v-559h-156zM291 1153q0 92 40 150.5t105 58.5q43 0 89.5 -24t84.5 -48t60 -24q59 0 59 96h98q0 -92 -40 -150.5t-105 -58.5
q-42 0 -88.5 24t-84 48t-58.5 24q-60 0 -60 -96h-100z" />
    <glyph glyph-name="ograve" unicode="&#xf2;" horiz-adv-x="1216" 
d="M84 498q0 106 41.5 202t112 166t167.5 111t203 41q142 0 263 -69.5t191.5 -189.5t70.5 -261q0 -140 -70.5 -259.5t-191.5 -189t-263 -69.5q-106 0 -203.5 41t-167.5 110.5t-111.5 165.5t-41.5 201zM244 498q0 -153 106 -260t258 -107t258.5 107.5t106.5 259.5
q0 153 -106.5 260.5t-258.5 107.5t-258 -107.5t-106 -260.5zM569 1157l-192 273h174l166 -273h-148z" />
    <glyph glyph-name="oacute" unicode="&#xf3;" horiz-adv-x="1216" 
d="M84 498q0 106 41.5 202t112 166t167.5 111t203 41q142 0 263 -69.5t191.5 -189.5t70.5 -261q0 -140 -70.5 -259.5t-191.5 -189t-263 -69.5q-106 0 -203.5 41t-167.5 110.5t-111.5 165.5t-41.5 201zM244 498q0 -153 106 -260t258 -107t258.5 107.5t106.5 259.5
q0 153 -106.5 260.5t-258.5 107.5t-258 -107.5t-106 -260.5zM500 1157l166 273h174l-193 -273h-147z" />
    <glyph glyph-name="ocircumflex" unicode="&#xf4;" horiz-adv-x="1216" 
d="M84 498q0 106 41.5 202t112 166t167.5 111t203 41q142 0 263 -69.5t191.5 -189.5t70.5 -261q0 -140 -70.5 -259.5t-191.5 -189t-263 -69.5q-106 0 -203.5 41t-167.5 110.5t-111.5 165.5t-41.5 201zM244 498q0 -153 106 -260t258 -107t258.5 107.5t106.5 259.5
q0 153 -106.5 260.5t-258.5 107.5t-258 -107.5t-106 -260.5zM342 1145l180 272h174l181 -272h-134l-135 178l-135 -178h-131z" />
    <glyph glyph-name="otilde" unicode="&#xf5;" horiz-adv-x="1216" 
d="M84 498q0 106 41.5 202t112 166t167.5 111t203 41q142 0 263 -69.5t191.5 -189.5t70.5 -261q0 -140 -70.5 -259.5t-191.5 -189t-263 -69.5q-106 0 -203.5 41t-167.5 110.5t-111.5 165.5t-41.5 201zM244 498q0 -153 106 -260t258 -107t258.5 107.5t106.5 259.5
q0 153 -106.5 260.5t-258.5 107.5t-258 -107.5t-106 -260.5zM340 1153q0 92 40 150.5t105 58.5q43 0 89.5 -24t84.5 -48t60 -24q59 0 59 96h99q0 -92 -40.5 -150.5t-105.5 -58.5q-42 0 -88.5 24t-84 48t-58.5 24q-60 0 -60 -96h-100z" />
    <glyph glyph-name="odieresis" unicode="&#xf6;" horiz-adv-x="1216" 
d="M84 498q0 106 41.5 202t112 166t167.5 111t203 41q142 0 263 -69.5t191.5 -189.5t70.5 -261q0 -140 -70.5 -259.5t-191.5 -189t-263 -69.5q-106 0 -203.5 41t-167.5 110.5t-111.5 165.5t-41.5 201zM244 498q0 -153 106 -260t258 -107t258.5 107.5t106.5 259.5
q0 153 -106.5 260.5t-258.5 107.5t-258 -107.5t-106 -260.5zM356 1260q0 38 27.5 65t65.5 27q37 0 63.5 -27t26.5 -65q0 -37 -26.5 -64t-63.5 -27q-38 0 -65.5 27t-27.5 64zM678 1260q0 38 28 65t66 27q37 0 63.5 -27t26.5 -65q0 -37 -26.5 -64t-63.5 -27q-38 0 -66 27
t-28 64z" />
    <glyph glyph-name="divide" unicode="&#xf7;" 
d="M465 850q0 47 34 82t81 35q49 0 83.5 -34.5t34.5 -82.5q0 -49 -34 -83t-84 -34q-48 0 -81.5 34t-33.5 83zM465 236q0 47 34 81.5t81 34.5q49 0 83.5 -34t34.5 -82q0 -49 -34 -83t-84 -34q-48 0 -81.5 34t-33.5 83zM125 475v133h913v-133h-913z" />
    <glyph glyph-name="oslash" unicode="&#xf8;" horiz-adv-x="1216" 
d="M84 498q0 106 41.5 202t112 166t167.5 111t203 41q118 0 223 -51l97 159l78 -47l-95 -157q102 -72 162 -184t60 -240q0 -140 -70.5 -259.5t-191.5 -189t-263 -69.5q-114 0 -229 51l-90 -152l-80 47l92 152q-100 72 -158.5 182.5t-58.5 237.5zM457 162q70 -31 151 -31
q152 0 258.5 107.5t106.5 259.5q0 86 -38 162.5t-104 127.5zM244 498q0 -85 36.5 -160t100.5 -127l371 625q-64 30 -144 30q-152 0 -258 -107.5t-106 -260.5z" />
    <glyph glyph-name="ugrave" unicode="&#xf9;" horiz-adv-x="1099" 
d="M115 381v616h155v-583q0 -138 61 -210.5t195 -72.5q123 0 203 84t80 227v555h156v-997h-156v154q-108 -174 -322 -174q-123 0 -208.5 54t-124.5 142.5t-39 204.5zM530 1157l-192 273h174l166 -273h-148z" />
    <glyph glyph-name="uacute" unicode="&#xfa;" horiz-adv-x="1099" 
d="M115 381v616h155v-583q0 -138 61 -210.5t195 -72.5q123 0 203 84t80 227v555h156v-997h-156v154q-108 -174 -322 -174q-123 0 -208.5 54t-124.5 142.5t-39 204.5zM422 1157l166 273h174l-193 -273h-147z" />
    <glyph glyph-name="ucircumflex" unicode="&#xfb;" horiz-adv-x="1099" 
d="M115 381v616h155v-583q0 -138 61 -210.5t195 -72.5q123 0 203 84t80 227v555h156v-997h-156v154q-108 -174 -322 -174q-123 0 -208.5 54t-124.5 142.5t-39 204.5zM266 1145l180 272h175l180 -272h-133l-136 178l-135 -178h-131z" />
    <glyph glyph-name="udieresis" unicode="&#xfc;" horiz-adv-x="1099" 
d="M115 381v616h155v-583q0 -138 61 -210.5t195 -72.5q123 0 203 84t80 227v555h156v-997h-156v154q-108 -174 -322 -174q-123 0 -208.5 54t-124.5 142.5t-39 204.5zM283 1260q0 38 27 65t65 27q37 0 63.5 -27t26.5 -65q0 -37 -26.5 -64t-63.5 -27q-38 0 -65 27t-27 64z
M604 1260q0 38 28 65t66 27q37 0 63.5 -27t26.5 -65q0 -37 -26.5 -64t-63.5 -27q-38 0 -66 27t-28 64z" />
    <glyph glyph-name="yacute" unicode="&#xfd;" horiz-adv-x="1077" 
d="M217 -301v147q88 0 140 36t100 138l20 46l-454 931h165l295 -624l68 -156q44 109 67 162l269 618h162l-467 -1046q-30 -69 -67.5 -117.5t-71.5 -74t-78 -40t-74.5 -17.5t-73.5 -3zM461 1157l166 273h174l-193 -273h-147z" />
    <glyph glyph-name="thorn" unicode="&#xfe;" horiz-adv-x="1214" 
d="M135 -281v1608h156v-502q57 91 151 142t209 51q134 0 244.5 -70t172.5 -189t62 -261q0 -141 -62 -260t-171 -188.5t-240 -69.5q-117 0 -213 49.5t-153 140.5v-451h-156zM291 498q0 -156 97 -261.5t243 -105.5t243 105.5t97 261.5q0 157 -97 263.5t-243 106.5t-243 -106.5
t-97 -263.5z" />
    <glyph glyph-name="ydieresis" unicode="&#xff;" horiz-adv-x="1077" 
d="M217 -301v147q88 0 140 36t100 138l20 46l-454 931h165l295 -624l68 -156q44 109 67 162l269 618h162l-467 -1046q-30 -69 -67.5 -117.5t-71.5 -74t-78 -40t-74.5 -17.5t-73.5 -3zM303 1260q0 38 27 65t65 27q37 0 63.5 -27t26.5 -65q0 -37 -26.5 -64t-63.5 -27
q-38 0 -65 27t-27 64zM625 1260q0 38 28 65t66 27q37 0 63.5 -27t26.5 -65q0 -37 -26.5 -64t-63.5 -27q-38 0 -66 27t-28 64z" />
    <glyph glyph-name="Amacron" unicode="&#x100;" horiz-adv-x="1427" 
d="M16 0l627 1327h141l627 -1327h-170l-123 258h-811l-123 -258h-168zM369 393h688l-223 467q-26 55 -56.5 124.5t-47.5 111.5l-17 43q-60 -158 -119 -281zM508 1450v121h410v-121h-410z" />
    <glyph glyph-name="amacron" unicode="&#x101;" horiz-adv-x="1220" 
d="M84 498q0 142 62.5 261t173.5 189t245 70q115 0 210.5 -51t154.5 -142v172h155v-997h-155v170q-58 -91 -153.5 -140.5t-211.5 -49.5q-134 0 -245 69.5t-173.5 188.5t-62.5 260zM244 498q0 -156 98.5 -261.5t247.5 -105.5q144 0 242 104.5t98 262.5q0 156 -97 262
t-243 106q-148 0 -247 -106t-99 -262zM395 1167v121h410v-121h-410z" />
    <glyph glyph-name="Abreve" unicode="&#x102;" horiz-adv-x="1427" 
d="M16 0l627 1327h141l627 -1327h-170l-123 258h-811l-123 -258h-168zM369 393h688l-223 467q-26 55 -56.5 124.5t-47.5 111.5l-17 43q-60 -158 -119 -281zM713 1419q-96 0 -154.5 63.5t-58.5 155.5h94q6 -51 39.5 -78.5t79.5 -27.5t79 27.5t37 78.5h97q0 -92 -58.5 -155.5
t-154.5 -63.5z" />
    <glyph glyph-name="abreve" unicode="&#x103;" horiz-adv-x="1220" 
d="M84 498q0 142 62.5 261t173.5 189t245 70q115 0 210.5 -51t154.5 -142v172h155v-997h-155v170q-58 -91 -153.5 -140.5t-211.5 -49.5q-134 0 -245 69.5t-173.5 188.5t-62.5 260zM244 498q0 -156 98.5 -261.5t247.5 -105.5q144 0 242 104.5t98 262.5q0 156 -97 262
t-243 106q-148 0 -247 -106t-99 -262zM600 1135q-96 0 -154.5 63.5t-58.5 155.5h94q6 -51 39.5 -79t79.5 -28t79.5 28t37.5 79h96q0 -92 -58.5 -155.5t-154.5 -63.5z" />
    <glyph glyph-name="Aogonek" unicode="&#x104;" horiz-adv-x="1427" 
d="M1133 -262q0 70 28.5 140t79.5 122l-123 258h-811l-123 -258h-168l627 1327h141l627 -1327h-65q-42 -39 -70.5 -102t-28.5 -119q0 -55 32.5 -87t82.5 -32q34 0 82 23l33 -82q-67 -52 -152 -52q-77 0 -134.5 50.5t-57.5 138.5zM369 393h688l-223 467q-16 33 -33.5 72
t-32 73t-26 61.5t-20 48t-9.5 22.5q0 -1 -18.5 -46t-47 -112.5t-53.5 -120.5z" />
    <glyph glyph-name="aogonek" unicode="&#x105;" horiz-adv-x="1220" 
d="M811 -262q0 72 32 145t87 127v160q-58 -91 -153.5 -140.5t-211.5 -49.5q-134 0 -245 69.5t-173.5 188.5t-62.5 260q0 142 62.5 261t173.5 189t245 70q115 0 210.5 -51t154.5 -142v172h155v-997h-61q-42 -39 -70 -102t-28 -119q0 -55 32 -87t82 -32q34 0 82 23l33 -82
q-67 -52 -151 -52q-77 0 -135 51t-58 138zM244 498q0 -156 98.5 -261.5t247.5 -105.5q144 0 242 104.5t98 262.5q0 156 -97 262t-243 106q-148 0 -247 -106t-99 -262z" />
    <glyph glyph-name="Cacute" unicode="&#x106;" horiz-adv-x="1314" 
d="M94 664q0 139 53.5 265.5t145 218.5t220 146t271.5 54q131 0 249.5 -45.5t211.5 -126.5l-100 -113q-150 135 -350 135q-149 0 -270.5 -71.5t-190 -194t-68.5 -268.5q0 -145 68 -267.5t188 -195t264 -72.5q112 0 212.5 43t175.5 121l104 -113q-95 -95 -221.5 -147.5
t-270.5 -52.5t-272.5 54t-220.5 145.5t-145.5 218t-53.5 266.5zM690 1430l166 272h174l-192 -272h-148z" />
    <glyph glyph-name="cacute" unicode="&#x107;" horiz-adv-x="1038" 
d="M84 498q0 106 41.5 202t112 166t167.5 111t203 41q101 0 194 -36.5t165 -100.5l-101 -111q-103 96 -256 96q-154 0 -260 -106.5t-106 -261.5q0 -154 106 -260.5t264 -106.5q83 0 157.5 30.5t125.5 84.5l92 -115q-73 -72 -171.5 -111.5t-209.5 -39.5q-107 0 -203.5 41
t-167 110t-112 165t-41.5 202zM483 1157l166 273h174l-192 -273h-148z" />
    <glyph glyph-name="Ccircumflex" unicode="&#x108;" horiz-adv-x="1314" 
d="M94 664q0 139 53.5 265.5t145 218.5t220 146t271.5 54q131 0 249.5 -45.5t211.5 -126.5l-100 -113q-150 135 -350 135q-149 0 -270.5 -71.5t-190 -194t-68.5 -268.5q0 -145 68 -267.5t188 -195t264 -72.5q112 0 212.5 43t175.5 121l104 -113q-95 -95 -221.5 -147.5
t-270.5 -52.5t-272.5 54t-220.5 145.5t-145.5 218t-53.5 266.5zM520 1430l180 272h174l181 -272h-133l-136 178l-135 -178h-131z" />
    <glyph glyph-name="ccircumflex" unicode="&#x109;" horiz-adv-x="1038" 
d="M84 498q0 106 41.5 202t112 166t167.5 111t203 41q101 0 194 -36.5t165 -100.5l-101 -111q-103 96 -256 96q-154 0 -260 -106.5t-106 -261.5q0 -154 106 -260.5t264 -106.5q83 0 157.5 30.5t125.5 84.5l92 -115q-73 -72 -171.5 -111.5t-209.5 -39.5q-107 0 -203.5 41
t-167 110t-112 165t-41.5 202zM332 1145l180 272h174l180 -272h-133l-135 178l-135 -178h-131z" />
    <glyph glyph-name="Cdotaccent" unicode="&#x10a;" horiz-adv-x="1314" 
d="M94 664q0 139 53.5 265.5t145 218.5t220 146t271.5 54q131 0 249.5 -45.5t211.5 -126.5l-100 -113q-150 135 -350 135q-149 0 -270.5 -71.5t-190 -194t-68.5 -268.5q0 -145 68 -267.5t188 -195t264 -72.5q112 0 212.5 43t175.5 121l104 -113q-95 -95 -221.5 -147.5
t-270.5 -52.5t-272.5 54t-220.5 145.5t-145.5 218t-53.5 266.5zM672 1522q0 43 30.5 73.5t73.5 30.5q42 0 72.5 -31t30.5 -73q0 -41 -31 -72t-72 -31q-42 0 -73 30.5t-31 72.5z" />
    <glyph glyph-name="cdotaccent" unicode="&#x10b;" horiz-adv-x="1038" 
d="M84 498q0 106 41.5 202t112 166t167.5 111t203 41q101 0 194 -36.5t165 -100.5l-101 -111q-103 96 -256 96q-154 0 -260 -106.5t-106 -261.5q0 -154 106 -260.5t264 -106.5q83 0 157.5 30.5t125.5 84.5l92 -115q-73 -72 -171.5 -111.5t-209.5 -39.5q-107 0 -203.5 41
t-167 110t-112 165t-41.5 202zM500 1278q0 43 30.5 73.5t73.5 30.5q42 0 72.5 -31t30.5 -73q0 -41 -31 -71.5t-72 -30.5q-43 0 -73.5 30.5t-30.5 71.5z" />
    <glyph glyph-name="Ccaron" unicode="&#x10c;" horiz-adv-x="1314" 
d="M94 664q0 139 53.5 265.5t145 218.5t220 146t271.5 54q131 0 249.5 -45.5t211.5 -126.5l-100 -113q-150 135 -350 135q-149 0 -270.5 -71.5t-190 -194t-68.5 -268.5q0 -145 68 -267.5t188 -195t264 -72.5q112 0 212.5 43t175.5 121l104 -113q-95 -95 -221.5 -147.5
t-270.5 -52.5t-272.5 54t-220.5 145.5t-145.5 218t-53.5 266.5zM700 1430l-180 272h133l133 -178l136 178h133l-181 -272h-174z" />
    <glyph glyph-name="ccaron" unicode="&#x10d;" horiz-adv-x="1038" 
d="M84 498q0 106 41.5 202t112 166t167.5 111t203 41q101 0 194 -36.5t165 -100.5l-101 -111q-103 96 -256 96q-154 0 -260 -106.5t-106 -261.5q0 -154 106 -260.5t264 -106.5q83 0 157.5 30.5t125.5 84.5l92 -115q-73 -72 -171.5 -111.5t-209.5 -39.5q-107 0 -203.5 41
t-167 110t-112 165t-41.5 202zM508 1145l-180 272h133l133 -178l135 178h133l-180 -272h-174z" />
    <glyph glyph-name="Dcaron" unicode="&#x10e;" horiz-adv-x="1447" 
d="M319 145h330q158 0 280 67.5t187.5 185.5t65.5 266t-65.5 265.5t-187.5 185t-280 67.5h-330v-1037zM156 0v1327h503q155 0 286.5 -53t220.5 -143t138.5 -211t49.5 -256t-49.5 -256t-138.5 -211.5t-220.5 -143.5t-286.5 -53h-503zM537 1430l-181 272h133l134 -178l135 178
h133l-180 -272h-174z" />
    <glyph glyph-name="dcaron" unicode="&#x10f;" horiz-adv-x="1214" 
d="M84 498q0 142 62.5 261t173.5 189t245 70q113 0 207.5 -51t151.5 -142v523h155v-1348h-155v170q-57 -91 -151 -140.5t-208 -49.5q-134 0 -245 69.5t-173.5 188.5t-62.5 260zM244 498q0 -156 98 -261.5t244 -105.5q143 0 240.5 104t97.5 263q0 156 -97 262t-241 106
q-146 0 -244 -106t-98 -262zM1118 965q51 52 88 127.5t37 150.5q0 36 -18 72l118 41q23 -52 23 -94q0 -101 -46 -178.5t-101 -118.5h-101z" />
    <glyph glyph-name="Dcroat" unicode="&#x110;" horiz-adv-x="1447" 
d="M156 0v616h-189v127h189v584h516q144 0 271.5 -52.5t217 -142t141.5 -211.5t52 -257t-52 -257.5t-141.5 -212t-217 -142t-271.5 -52.5h-516zM319 145h349q145 0 263 69t184.5 188t66.5 262t-66.5 261.5t-184.5 187.5t-263 69h-349v-439h377v-127h-377v-471z" />
    <glyph glyph-name="dcroat" unicode="&#x111;" horiz-adv-x="1214" 
d="M84 498q0 142 62.5 261t173.5 189t245 70q113 0 207.5 -51t151.5 -142v297h-342v95h342v131h155v-131h123v-95h-123v-1122h-155v170q-57 -91 -151 -140.5t-208 -49.5q-134 0 -245 69.5t-173.5 188.5t-62.5 260zM244 498q0 -156 98 -261.5t244 -105.5q142 0 240 104.5
t98 262.5q0 156 -97 262t-241 106q-146 0 -244 -106t-98 -262z" />
    <glyph glyph-name="Emacron" unicode="&#x112;" horiz-adv-x="1263" 
d="M156 0v1327h1005v-145h-842v-402h787v-143h-787v-492h871v-145h-1034zM459 1450v121h409v-121h-409z" />
    <glyph glyph-name="emacron" unicode="&#x113;" horiz-adv-x="1146" 
d="M246 563h659q-13 136 -106 226t-221 90q-124 0 -218.5 -90.5t-113.5 -225.5zM84 498q0 141 66.5 261t181.5 189.5t252 69.5q130 0 240.5 -69.5t174.5 -187.5t64 -255l-4 -66h-811q18 -143 120.5 -231t241.5 -88q180 0 308 115l73 -113q-168 -143 -381 -143
q-142 0 -262 64t-192 184t-72 270zM369 1167v121h409v-121h-409z" />
    <glyph glyph-name="Ebreve" unicode="&#x114;" horiz-adv-x="1263" 
d="M156 0v1327h1005v-145h-842v-402h787v-143h-787v-492h871v-145h-1034zM672 1419q-96 0 -154.5 63.5t-58.5 155.5h94q6 -51 39.5 -78.5t79.5 -27.5t79 27.5t37 78.5h97q0 -92 -58.5 -155.5t-154.5 -63.5z" />
    <glyph glyph-name="ebreve" unicode="&#x115;" horiz-adv-x="1146" 
d="M246 563h659q-13 136 -106 226t-221 90q-124 0 -218.5 -90.5t-113.5 -225.5zM84 498q0 141 66.5 261t181.5 189.5t252 69.5q130 0 240.5 -69.5t174.5 -187.5t64 -255l-4 -66h-811q18 -143 120.5 -231t241.5 -88q180 0 308 115l73 -113q-168 -143 -381 -143
q-142 0 -262 64t-192 184t-72 270zM573 1135q-96 0 -154.5 63.5t-58.5 155.5h95q6 -51 39 -79t79 -28t79.5 28t37.5 79h96q0 -92 -58.5 -155.5t-154.5 -63.5z" />
    <glyph glyph-name="Edotaccent" unicode="&#x116;" horiz-adv-x="1263" 
d="M156 0v1327h1005v-145h-842v-402h787v-143h-787v-492h871v-145h-1034zM571 1522q0 43 31 73.5t74 30.5q41 0 71.5 -30.5t30.5 -73.5q0 -41 -30.5 -72t-71.5 -31q-43 0 -74 31t-31 72z" />
    <glyph glyph-name="edotaccent" unicode="&#x117;" horiz-adv-x="1146" 
d="M246 563h659q-13 136 -106 226t-221 90q-124 0 -218.5 -90.5t-113.5 -225.5zM84 498q0 141 66.5 261t181.5 189.5t252 69.5q130 0 240.5 -69.5t174.5 -187.5t64 -255l-4 -66h-811q18 -143 120.5 -231t241.5 -88q180 0 308 115l73 -113q-168 -143 -381 -143
q-142 0 -262 64t-192 184t-72 270zM469 1278q0 43 30.5 73.5t73.5 30.5q41 0 72 -31t31 -73q0 -41 -31 -71.5t-72 -30.5q-43 0 -73.5 30.5t-30.5 71.5z" />
    <glyph glyph-name="Eogonek" unicode="&#x118;" horiz-adv-x="1288" 
d="M156 0v1327h1005v-145h-842v-402h787v-143h-787v-492h871v-145h-154q-42 -39 -70 -102t-28 -119q0 -55 32 -87t83 -32q34 0 82 23l32 -82q-67 -52 -151 -52q-77 0 -135 51t-58 138q0 69 29 139.5t80 122.5h-776z" />
    <glyph glyph-name="eogonek" unicode="&#x119;" horiz-adv-x="1146" 
d="M524 -262q0 63 23.5 127t66.5 115q-145 0 -265.5 64t-192.5 183.5t-72 270.5q0 141 66.5 261t181.5 189.5t252 69.5q130 0 240.5 -69.5t174.5 -187.5t64 -255l-4 -66h-811q18 -143 120.5 -231t241.5 -88q180 0 308 115l73 -113q-116 -101 -262 -131q-39 -40 -64.5 -100
t-25.5 -113q0 -55 32.5 -87t82.5 -32q34 0 82 23l32 -82q-67 -52 -151 -52q-77 0 -135 51t-58 138zM246 563h659q-13 136 -106 226t-221 90q-124 0 -218.5 -90.5t-113.5 -225.5z" />
    <glyph glyph-name="Ecaron" unicode="&#x11a;" horiz-adv-x="1263" 
d="M156 0v1327h1005v-145h-842v-402h787v-143h-787v-492h871v-145h-1034zM584 1430l-181 272h134l133 -178l135 178h133l-180 -272h-174z" />
    <glyph glyph-name="ecaron" unicode="&#x11b;" horiz-adv-x="1146" 
d="M246 563h659q-13 136 -106 226t-221 90q-124 0 -218.5 -90.5t-113.5 -225.5zM84 498q0 141 66.5 261t181.5 189.5t252 69.5q130 0 240.5 -69.5t174.5 -187.5t64 -255l-4 -66h-811q18 -143 120.5 -231t241.5 -88q180 0 308 115l73 -113q-168 -143 -381 -143
q-142 0 -262 64t-192 184t-72 270zM485 1145l-180 272h133l133 -178l136 178h133l-181 -272h-174z" />
    <glyph glyph-name="Gcircumflex" unicode="&#x11c;" horiz-adv-x="1495" 
d="M94 664q0 139 53.5 265.5t145.5 218.5t220.5 146t272.5 54q130 0 249 -46t214 -128l-102 -115q-148 139 -361 139q-144 0 -263.5 -71.5t-188 -194t-68.5 -268.5t68.5 -268.5t188 -194.5t263.5 -72q126 0 234 56.5t180 154.5v274h-291v142h451v-477q-92 -138 -244 -218.5
t-330 -80.5q-144 0 -272.5 54t-220.5 145.5t-145.5 218t-53.5 266.5zM504 1430l180 272h174l180 -272h-133l-135 178l-135 -178h-131z" />
    <glyph glyph-name="gcircumflex" unicode="&#x11d;" horiz-adv-x="1214" 
d="M84 537q0 207 137.5 344t343.5 137q114 0 208 -50.5t151 -142.5v172h155v-774q0 -125 -40 -222.5t-97.5 -152.5t-131 -90.5t-131 -47t-106.5 -11.5q-119 0 -220.5 41t-174.5 113l78 102q125 -125 313 -125q17 0 43 4t69.5 15.5t83.5 37.5t77 64t59.5 102t22.5 144v43
q-57 -92 -150.5 -141.5t-208.5 -49.5q-206 0 -343.5 139.5t-137.5 348.5zM244 526q0 -144 95 -234.5t241 -90.5t239.5 90.5t93.5 234.5q0 150 -94 245t-239 95q-146 0 -241 -95t-95 -245zM334 1145l180 272h174l180 -272h-133l-135 178l-135 -178h-131z" />
    <glyph glyph-name="Gbreve" unicode="&#x11e;" horiz-adv-x="1495" 
d="M94 664q0 139 53.5 265.5t145.5 218.5t220.5 146t272.5 54q130 0 249 -46t214 -128l-102 -115q-148 139 -361 139q-144 0 -263.5 -71.5t-188 -194t-68.5 -268.5t68.5 -268.5t188 -194.5t263.5 -72q126 0 234 56.5t180 154.5v274h-291v142h451v-477q-92 -138 -244 -218.5
t-330 -80.5q-144 0 -272.5 54t-220.5 145.5t-145.5 218t-53.5 266.5zM772 1419q-96 0 -154.5 63.5t-58.5 155.5h94q6 -51 39.5 -78.5t79.5 -27.5q47 0 80 28t37 78h96q0 -92 -58.5 -155.5t-154.5 -63.5z" />
    <glyph glyph-name="gbreve" unicode="&#x11f;" horiz-adv-x="1214" 
d="M84 537q0 207 137.5 344t343.5 137q114 0 208 -50.5t151 -142.5v172h155v-774q0 -125 -40 -222.5t-97.5 -152.5t-131 -90.5t-131 -47t-106.5 -11.5q-119 0 -220.5 41t-174.5 113l78 102q125 -125 313 -125q17 0 43 4t69.5 15.5t83.5 37.5t77 64t59.5 102t22.5 144v43
q-57 -92 -150.5 -141.5t-208.5 -49.5q-206 0 -343.5 139.5t-137.5 348.5zM244 526q0 -144 95 -234.5t241 -90.5t239.5 90.5t93.5 234.5q0 150 -94 245t-239 95q-146 0 -241 -95t-95 -245zM608 1135q-96 0 -154.5 63.5t-58.5 155.5h94q6 -51 39.5 -79t79.5 -28t79.5 28
t37.5 79h96q0 -92 -58.5 -155.5t-154.5 -63.5z" />
    <glyph glyph-name="Gdotaccent" unicode="&#x120;" horiz-adv-x="1495" 
d="M94 664q0 139 53.5 265.5t145.5 218.5t220.5 146t272.5 54q130 0 249 -46t214 -128l-102 -115q-148 139 -361 139q-144 0 -263.5 -71.5t-188 -194t-68.5 -268.5t68.5 -268.5t188 -194.5t263.5 -72q126 0 234 56.5t180 154.5v274h-291v142h451v-477q-92 -138 -244 -218.5
t-330 -80.5q-144 0 -272.5 54t-220.5 145.5t-145.5 218t-53.5 266.5zM672 1522q0 43 30.5 73.5t73.5 30.5q42 0 72.5 -31t30.5 -73q0 -41 -31 -72t-72 -31q-42 0 -73 30.5t-31 72.5z" />
    <glyph glyph-name="gdotaccent" unicode="&#x121;" horiz-adv-x="1214" 
d="M84 537q0 207 137.5 344t343.5 137q114 0 208 -50.5t151 -142.5v172h155v-774q0 -125 -40 -222.5t-97.5 -152.5t-131 -90.5t-131 -47t-106.5 -11.5q-119 0 -220.5 41t-174.5 113l78 102q125 -125 313 -125q17 0 43 4t69.5 15.5t83.5 37.5t77 64t59.5 102t22.5 144v43
q-57 -92 -150.5 -141.5t-208.5 -49.5q-206 0 -343.5 139.5t-137.5 348.5zM244 526q0 -144 95 -234.5t241 -90.5t239.5 90.5t93.5 234.5q0 150 -94 245t-239 95q-146 0 -241 -95t-95 -245zM487 1278q0 43 31 73.5t74 30.5q41 0 71.5 -30.5t30.5 -73.5q0 -41 -30.5 -71.5
t-71.5 -30.5q-43 0 -74 30.5t-31 71.5z" />
    <glyph glyph-name="Gcommaaccent" unicode="&#x122;" horiz-adv-x="1495" 
d="M94 664q0 139 53.5 265.5t145.5 218.5t220.5 146t272.5 54q130 0 249 -46t214 -128l-102 -115q-148 139 -361 139q-144 0 -263.5 -71.5t-188 -194t-68.5 -268.5t68.5 -268.5t188 -194.5t263.5 -72q126 0 234 56.5t180 154.5v274h-291v142h451v-477q-92 -138 -244 -218.5
t-330 -80.5q-144 0 -272.5 54t-220.5 145.5t-145.5 218t-53.5 266.5zM637 -481q51 52 88 127.5t37 150.5q0 34 -19 72l119 41q23 -52 23 -94q0 -101 -46.5 -178.5t-101.5 -118.5h-100z" />
    <glyph glyph-name="gcommaaccent" unicode="&#x123;" horiz-adv-x="1214" 
d="M537 1128q-66 52 -107 127.5t-41 155.5q0 48 23 109l116 -41q-16 -40 -16 -74q0 -76 36.5 -150.5t86.5 -126.5h-98zM84 537q0 207 137.5 344t343.5 137q114 0 208 -50.5t151 -142.5v172h155v-774q0 -125 -40 -222.5t-97.5 -152.5t-131 -90.5t-131 -47t-106.5 -11.5
q-119 0 -220.5 41t-174.5 113l78 102q125 -125 313 -125q17 0 43 4t69.5 15.5t83.5 37.5t77 64t59.5 102t22.5 144v43q-57 -92 -150.5 -141.5t-208.5 -49.5q-206 0 -343.5 139.5t-137.5 348.5zM244 526q0 -150 95 -245t241 -95q145 0 239 95t94 245q0 153 -93.5 249.5
t-239.5 96.5t-241 -96.5t-95 -249.5z" />
    <glyph glyph-name="Hcircumflex" unicode="&#x124;" horiz-adv-x="1406" 
d="M156 0v1327h163v-547h768v547h164v-1327h-164v635h-768v-635h-163zM444 1430l181 272h174l180 -272h-133l-135 178l-136 -178h-131z" />
    <glyph glyph-name="hcircumflex" unicode="&#x125;" horiz-adv-x="1112" 
d="M135 0v1348h156v-510q111 180 340 180q180 0 273 -108.5t93 -301.5v-608h-155v584q0 139 -60 210.5t-196 71.5q-133 0 -214 -89.5t-81 -213.5v-563h-156zM-47 1384l180 273h174l180 -273h-133l-135 179l-135 -179h-131z" />
    <glyph glyph-name="Hbar" unicode="&#x126;" horiz-adv-x="1406" 
d="M156 0v1012h-82v118h82v197h163v-197h768v197h164v-197h82v-118h-82v-1012h-164v643h-768v-643h-163zM319 788h768v224h-768v-224z" />
    <glyph glyph-name="hbar" unicode="&#x127;" horiz-adv-x="1112" 
d="M135 0v1122h-115v95h115v131h156v-131h350v-95h-350v-284q111 180 340 180q180 0 273 -108.5t93 -301.5v-608h-155v584q0 139 -60 210.5t-196 71.5q-123 0 -209 -85t-86 -218v-563h-156z" />
    <glyph glyph-name="Itilde" unicode="&#x128;" horiz-adv-x="475" 
d="M156 0v1327h163v-1327h-163zM-31 1419q0 92 40.5 150.5t105.5 58.5q43 0 89.5 -24t84 -48t59.5 -24q31 0 45.5 27.5t14.5 68.5h98q0 -92 -40.5 -150.5t-105.5 -58.5q-33 0 -70 15t-63 33.5t-53.5 33.5t-44.5 15q-59 0 -59 -97h-101z" />
    <glyph glyph-name="itilde" unicode="&#x129;" horiz-adv-x="425" 
d="M-55 1153q0 92 40 150.5t105 58.5q43 0 89.5 -24t84.5 -48t60 -24q59 0 59 96h98q0 -92 -40 -150.5t-105 -58.5q-42 0 -88.5 24t-84.5 48t-59 24q-59 0 -59 -96h-100zM135 0v997h156v-997h-156z" />
    <glyph glyph-name="Imacron" unicode="&#x12a;" horiz-adv-x="475" 
d="M156 0v1327h163v-1327h-163zM33 1450v121h409v-121h-409z" />
    <glyph glyph-name="imacron" unicode="&#x12b;" horiz-adv-x="425" 
d="M8 1167v121h410v-121h-410zM135 0v997h156v-997h-156z" />
    <glyph glyph-name="Ibreve" unicode="&#x12c;" horiz-adv-x="475" 
d="M156 0v1327h163v-1327h-163zM238 1419q-96 0 -154.5 63.5t-58.5 155.5h94q6 -51 39.5 -78.5t79.5 -27.5t79 27.5t37 78.5h97q0 -92 -58.5 -155.5t-154.5 -63.5z" />
    <glyph glyph-name="ibreve" unicode="&#x12d;" horiz-adv-x="425" 
d="M213 1135q-96 0 -154.5 63.5t-58.5 155.5h94q6 -51 39.5 -79t79.5 -28t79.5 28t37.5 79h96q0 -92 -58.5 -155.5t-154.5 -63.5zM135 0v997h156v-997h-156z" />
    <glyph glyph-name="Iogonek" unicode="&#x12e;" horiz-adv-x="475" 
d="M37 -262q0 72 32 145t87 127v1317h163v-1327h-69q-42 -39 -70 -102t-28 -119q0 -55 32 -87t82 -32q34 0 82 23l33 -82q-67 -52 -152 -52q-77 0 -134.5 50.5t-57.5 138.5z" />
    <glyph glyph-name="iogonek" unicode="&#x12f;" horiz-adv-x="425" 
d="M16 -262q0 72 32 145t87 127v987h156v-997h-62q-42 -39 -70 -102t-28 -119q0 -55 32.5 -87t82.5 -32q34 0 82 23l32 -82q-67 -52 -151 -52q-77 0 -135 51t-58 138zM113 1266q0 43 29.5 73.5t72.5 30.5t72.5 -30.5t29.5 -73.5q0 -42 -30 -72.5t-72 -30.5t-72 30.5
t-30 72.5z" />
    <glyph glyph-name="Idotaccent" unicode="&#x130;" horiz-adv-x="475" 
d="M156 0v1327h163v-1327h-163zM133 1522q0 43 31 73.5t74 30.5q41 0 71.5 -30.5t30.5 -73.5q0 -41 -30.5 -72t-71.5 -31q-43 0 -74 31t-31 72z" />
    <glyph glyph-name="dotlessi" unicode="&#x131;" horiz-adv-x="425" 
d="M135 0v997h156v-997h-156z" />
    <glyph glyph-name="Jcircumflex" unicode="&#x134;" horiz-adv-x="1112" 
d="M53 227l119 90q103 -188 297 -188q155 0 249.5 100.5t94.5 311.5v786h164v-797q0 -143 -39.5 -251t-110.5 -172t-160 -95.5t-196 -31.5q-135 0 -246.5 63.5t-171.5 183.5zM625 1430l180 272h174l180 -272h-133l-135 178l-135 -178h-131z" />
    <glyph glyph-name="jcircumflex" unicode="&#x135;" horiz-adv-x="425" 
d="M20 -369l-53 123q168 100 168 377v866h156v-850q0 -381 -271 -516zM-55 1145l180 272h174l180 -272h-131l-137 178l-133 -178h-133z" />
    <glyph glyph-name="Kcommaaccent" unicode="&#x136;" horiz-adv-x="1318" 
d="M156 0v1327h163v-850q74 99 127 160l611 690h198l-528 -612l571 -715h-196l-481 600l-302 -338v-262h-163zM428 -481q51 52 88 127.5t37 150.5q0 36 -18 72l118 41q23 -52 23 -94q0 -101 -46.5 -178.5t-101.5 -118.5h-100z" />
    <glyph glyph-name="kcommaaccent" unicode="&#x137;" horiz-adv-x="1054" 
d="M135 0v1348h156v-899l483 548h201l-397 -442l466 -555h-200l-365 446l-188 -215v-231h-156zM356 -481q51 52 88 127.5t37 150.5q0 36 -18 72l119 41q22 -50 22 -94q0 -101 -46 -178.5t-101 -118.5h-101z" />
    <glyph glyph-name="Lacute" unicode="&#x139;" horiz-adv-x="1230" 
d="M156 0v1327h163v-1182h838v-145h-1001zM150 1430l165 272h174l-192 -272h-147z" />
    <glyph glyph-name="lacute" unicode="&#x13a;" horiz-adv-x="425" 
d="M135 0v1348h156v-1348h-156zM111 1507l165 273h175l-193 -273h-147z" />
    <glyph glyph-name="Lcommaaccent" unicode="&#x13b;" horiz-adv-x="1230" 
d="M156 0v1327h163v-1182h838v-145h-1001zM520 -481q51 52 88 127.5t37 150.5q0 36 -18 72l118 41q23 -52 23 -94q0 -101 -46 -178.5t-101 -118.5h-101z" />
    <glyph glyph-name="lcommaaccent" unicode="&#x13c;" horiz-adv-x="425" 
d="M135 0v1348h156v-1348h-156zM45 -481q51 52 88 127.5t37 150.5q0 36 -18 72l118 41q23 -52 23 -94q0 -101 -46.5 -178.5t-101.5 -118.5h-100z" />
    <glyph glyph-name="Lcaron" unicode="&#x13d;" horiz-adv-x="1230" 
d="M156 0v1327h163v-1182h838v-145h-1001zM424 944q53 57 91 134.5t38 154.5q0 36 -21 76l123 41q23 -52 23 -97q0 -105 -47.5 -185.5t-104.5 -123.5h-102z" />
    <glyph glyph-name="lcaron" unicode="&#x13e;" horiz-adv-x="425" 
d="M135 0v1348h156v-1348h-156zM332 965q51 52 88 127.5t37 150.5q0 34 -19 72l119 41q23 -52 23 -94q0 -101 -46.5 -178.5t-101.5 -118.5h-100z" />
    <glyph glyph-name="Lslash" unicode="&#x141;" horiz-adv-x="1230" 
d="M156 0v594l-133 -57v141l133 55v594h163v-524l371 160v-138l-371 -161v-519h838v-145h-1001z" />
    <glyph glyph-name="lslash" unicode="&#x142;" horiz-adv-x="425" 
d="M135 0v760l-112 -49v141l112 45v451h156v-383l117 49v-137l-117 -52v-825h-156z" />
    <glyph glyph-name="Nacute" unicode="&#x143;" horiz-adv-x="1441" 
d="M156 0v1327h159l635 -823q39 -50 82 -113t66 -101l24 -38v1075h164v-1327h-164l-614 797q-44 58 -91.5 125.5t-72.5 105.5l-25 39v-1067h-163zM616 1430l166 272h174l-192 -272h-148z" />
    <glyph glyph-name="nacute" unicode="&#x144;" horiz-adv-x="1112" 
d="M135 0v997h156v-159q113 180 340 180q183 0 274.5 -108t91.5 -302v-608h-155v584q0 140 -58 211t-194 71q-123 0 -211 -87t-88 -220v-559h-156zM440 1157l166 273h174l-192 -273h-148z" />
    <glyph glyph-name="Ncommaaccent" unicode="&#x145;" horiz-adv-x="1441" 
d="M156 0v1327h159l635 -823q39 -50 82 -113t66 -101l24 -38v1075h164v-1327h-164l-614 797q-44 58 -91.5 125.5t-72.5 105.5l-25 39v-1067h-163zM586 -481q51 52 88 127.5t37 150.5q0 34 -19 72l119 41q23 -52 23 -94q0 -101 -46.5 -178.5t-101.5 -118.5h-100z" />
    <glyph glyph-name="ncommaaccent" unicode="&#x146;" horiz-adv-x="1112" 
d="M135 0v997h156v-159q113 180 340 180q183 0 274.5 -108t91.5 -302v-608h-155v584q0 140 -58 211t-194 71q-123 0 -211 -87t-88 -220v-559h-156zM418 -481q51 52 88 127.5t37 150.5q0 34 -19 72l119 41q23 -52 23 -94q0 -101 -46.5 -178.5t-101.5 -118.5h-100z" />
    <glyph glyph-name="Ncaron" unicode="&#x147;" horiz-adv-x="1441" 
d="M156 0v1327h159l635 -823q39 -50 82 -113t66 -101l24 -38v1075h164v-1327h-164l-614 797q-44 58 -91.5 125.5t-72.5 105.5l-25 39v-1067h-163zM633 1430l-180 272h133l133 -178l135 178h133l-180 -272h-174z" />
    <glyph glyph-name="ncaron" unicode="&#x148;" horiz-adv-x="1112" 
d="M135 0v997h156v-159q113 180 340 180q183 0 274.5 -108t91.5 -302v-608h-155v584q0 140 -58 211t-194 71q-123 0 -211 -87t-88 -220v-559h-156zM479 1145l-180 272h133l133 -178l135 178h134l-181 -272h-174z" />
    <glyph glyph-name="Eng" unicode="&#x14a;" horiz-adv-x="1441" 
d="M156 0v1327h159l670 -866q29 -37 63.5 -89.5t53.5 -85.5l20 -34v1075h164v-1315q0 -154 -96 -272t-256 -166l-41 129q104 40 162 119.5t61 185.5l-641 832q-36 47 -75 104.5t-60 91.5l-21 33v-1069h-163z" />
    <glyph glyph-name="eng" unicode="&#x14b;" horiz-adv-x="1112" 
d="M135 0v997h156v-159q113 180 340 180q183 0 274.5 -108t91.5 -302v-545q0 -177 -99 -305t-255 -180l-41 129q109 41 174.5 134.5t65.5 224.5v518q0 282 -252 282q-123 0 -211 -87t-88 -220v-559h-156z" />
    <glyph glyph-name="Omacron" unicode="&#x14c;" horiz-adv-x="1570" 
d="M786 129q144 0 264 72.5t188.5 195t68.5 267.5q0 146 -68.5 268.5t-188.5 194t-264 71.5t-263.5 -71.5t-188 -194t-68.5 -268.5q0 -145 68 -267.5t188 -195t264 -72.5zM786 1348q192 0 351.5 -92t250.5 -249t91 -343q0 -187 -91 -344t-250.5 -248.5t-351.5 -91.5
q-144 0 -272.5 54t-220.5 145.5t-145.5 218t-53.5 266.5q0 139 53.5 265.5t145.5 218.5t220.5 146t272.5 54zM582 1450v121h409v-121h-409z" />
    <glyph glyph-name="omacron" unicode="&#x14d;" horiz-adv-x="1216" 
d="M84 498q0 106 41.5 202t112 166t167.5 111t203 41q142 0 263 -69.5t191.5 -189.5t70.5 -261q0 -140 -70.5 -259.5t-191.5 -189t-263 -69.5q-106 0 -203.5 41t-167.5 110.5t-111.5 165.5t-41.5 201zM244 498q0 -153 106 -260t258 -107t258.5 107.5t106.5 259.5
q0 153 -106.5 260.5t-258.5 107.5t-258 -107.5t-106 -260.5zM403 1167v121h410v-121h-410z" />
    <glyph glyph-name="Obreve" unicode="&#x14e;" horiz-adv-x="1570" 
d="M786 129q144 0 264 72.5t188.5 195t68.5 267.5q0 146 -68.5 268.5t-188.5 194t-264 71.5t-263.5 -71.5t-188 -194t-68.5 -268.5q0 -145 68 -267.5t188 -195t264 -72.5zM786 1348q192 0 351.5 -92t250.5 -249t91 -343q0 -187 -91 -344t-250.5 -248.5t-351.5 -91.5
q-144 0 -272.5 54t-220.5 145.5t-145.5 218t-53.5 266.5q0 139 53.5 265.5t145.5 218.5t220.5 146t272.5 54zM786 1419q-96 0 -154.5 63.5t-58.5 155.5h95q6 -51 39 -78.5t79 -27.5q47 0 80 28t37 78h96q0 -92 -58.5 -155.5t-154.5 -63.5z" />
    <glyph glyph-name="obreve" unicode="&#x14f;" horiz-adv-x="1216" 
d="M84 498q0 106 41.5 202t112 166t167.5 111t203 41q142 0 263 -69.5t191.5 -189.5t70.5 -261q0 -140 -70.5 -259.5t-191.5 -189t-263 -69.5q-106 0 -203.5 41t-167.5 110.5t-111.5 165.5t-41.5 201zM244 498q0 -153 106 -260t258 -107t258.5 107.5t106.5 259.5
q0 153 -106.5 260.5t-258.5 107.5t-258 -107.5t-106 -260.5zM608 1135q-96 0 -154.5 63.5t-58.5 155.5h94q6 -51 39.5 -79t79.5 -28t79.5 28t37.5 79h96q0 -92 -58.5 -155.5t-154.5 -63.5z" />
    <glyph glyph-name="Ohungarumlaut" unicode="&#x150;" horiz-adv-x="1570" 
d="M786 129q144 0 264 72.5t188.5 195t68.5 267.5q0 146 -68.5 268.5t-188.5 194t-264 71.5t-263.5 -71.5t-188 -194t-68.5 -268.5q0 -145 68 -267.5t188 -195t264 -72.5zM786 1348q192 0 351.5 -92t250.5 -249t91 -343q0 -187 -91 -344t-250.5 -248.5t-351.5 -91.5
q-144 0 -272.5 54t-220.5 145.5t-145.5 218t-53.5 266.5q0 139 53.5 265.5t145.5 218.5t220.5 146t272.5 54zM573 1430l152 258h174l-199 -258h-127zM836 1430l151 258h174l-198 -258h-127z" />
    <glyph glyph-name="ohungarumlaut" unicode="&#x151;" horiz-adv-x="1216" 
d="M84 498q0 106 41.5 202t112 166t167.5 111t203 41q142 0 263 -69.5t191.5 -189.5t70.5 -261q0 -140 -70.5 -259.5t-191.5 -189t-263 -69.5q-106 0 -203.5 41t-167.5 110.5t-111.5 165.5t-41.5 201zM244 498q0 -153 106 -260t258 -107t258.5 107.5t106.5 259.5
q0 153 -106.5 260.5t-258.5 107.5t-258 -107.5t-106 -260.5zM371 1141l151 258h174l-198 -258h-127zM633 1141l151 258h174l-198 -258h-127z" />
    <glyph glyph-name="OE" unicode="&#x152;" horiz-adv-x="2121" 
d="M94 664q0 139 53.5 265.5t145.5 218.5t220.5 146t272.5 54q188 0 344 -109v88h889v-145h-725v-402h674v-143h-674v-492h754v-145h-918v86q-144 -106 -344 -106q-144 0 -272.5 54t-220.5 145.5t-145.5 218t-53.5 266.5zM266 664q0 -145 69 -267.5t191 -195t269 -72.5
q201 0 335 125v817q-134 125 -335 125q-147 0 -268.5 -71.5t-191 -193.5t-69.5 -267z" />
    <glyph glyph-name="oe" unicode="&#x153;" horiz-adv-x="2033" 
d="M84 498q0 106 41.5 202t112 166t167.5 111t203 41q142 0 260 -75.5t179 -199.5q61 124 173.5 199.5t249.5 75.5q130 0 240.5 -69.5t175 -188t64.5 -256.5l-4 -64h-813q22 -145 124.5 -234t241.5 -89q173 0 301 121l76 -115q-74 -68 -171.5 -105.5t-203.5 -37.5
q-148 0 -272 74t-182 198q-61 -123 -178.5 -197.5t-260.5 -74.5q-106 0 -203.5 41t-167.5 110.5t-111.5 165.5t-41.5 201zM244 498q0 -153 106 -260t258 -107t258.5 107.5t106.5 259.5q0 153 -106.5 260.5t-258.5 107.5t-258 -107.5t-106 -260.5zM1130 563h662
q-13 136 -107 226t-221 90q-124 0 -219 -90t-115 -226z" />
    <glyph glyph-name="Racute" unicode="&#x154;" horiz-adv-x="1361" 
d="M156 0v1327h542q137 0 246.5 -39t179.5 -107.5t107 -158t37 -193.5q0 -148 -80 -268t-223 -176l313 -385h-207l-268 338q-51 -6 -242 -6h-242v-332h-163zM319 477h396q169 0 275 101t106 251t-105.5 251.5t-273.5 101.5h-398v-705zM487 1430l166 272h174l-192 -272h-148z
" />
    <glyph glyph-name="racute" unicode="&#x155;" horiz-adv-x="716" 
d="M135 0v997h156v-211q44 103 142.5 167.5t242.5 64.5v-172q-79 0 -145.5 -21.5t-121.5 -67t-86.5 -126.5t-31.5 -191v-440h-156zM260 1157l166 273h174l-192 -273h-148z" />
    <glyph glyph-name="Rcommaaccent" unicode="&#x156;" horiz-adv-x="1361" 
d="M156 0v1327h542q137 0 246.5 -39t179.5 -107.5t107 -158t37 -193.5q0 -148 -80 -268t-223 -176l313 -385h-207l-268 338q-51 -6 -242 -6h-242v-332h-163zM319 477h396q169 0 275 101t106 251t-105.5 251.5t-273.5 101.5h-398v-705zM459 -481q51 52 88 127.5t37 150.5
q0 34 -19 72l119 41q23 -52 23 -94q0 -101 -46.5 -178.5t-101.5 -118.5h-100z" />
    <glyph glyph-name="rcommaaccent" unicode="&#x157;" horiz-adv-x="716" 
d="M135 0v997h156v-211q44 103 142.5 167.5t242.5 64.5v-172q-79 0 -145.5 -21.5t-121.5 -67t-86.5 -126.5t-31.5 -191v-440h-156zM57 -481q51 52 88 127.5t37 150.5q0 36 -18 72l119 41q22 -50 22 -94q0 -101 -46 -178.5t-101 -118.5h-101z" />
    <glyph glyph-name="Rcaron" unicode="&#x158;" horiz-adv-x="1361" 
d="M156 0v1327h542q137 0 246.5 -39t179.5 -107.5t107 -158t37 -193.5q0 -148 -80 -268t-223 -176l313 -385h-207l-268 338q-51 -6 -242 -6h-242v-332h-163zM319 477h396q169 0 275 101t106 251t-105.5 251.5t-273.5 101.5h-398v-705zM526 1430l-180 272h133l133 -178
l136 178h133l-181 -272h-174z" />
    <glyph glyph-name="rcaron" unicode="&#x159;" horiz-adv-x="716" 
d="M135 0v997h156v-211q44 103 142.5 167.5t242.5 64.5v-172q-79 0 -145.5 -21.5t-121.5 -67t-86.5 -126.5t-31.5 -191v-440h-156zM311 1145l-180 272h133l133 -178l135 178h134l-181 -272h-174z" />
    <glyph glyph-name="Sacute" unicode="&#x15a;" horiz-adv-x="1226" 
d="M94 182l74 125q175 -178 442 -178q62 0 122.5 14.5t112.5 43t84 76.5t32 108q0 37 -12 67.5t-38 53.5t-52.5 40t-70 32t-75 24t-82.5 22q-63 15 -102 25.5t-95.5 29.5t-92 37.5t-75.5 47.5t-62.5 61.5t-38 77.5t-15.5 98q0 111 68 195t172 125t222 41q250 0 451 -150
l-76 -127q-165 127 -375 127q-36 0 -74.5 -7t-77.5 -23.5t-69.5 -40t-49.5 -59.5t-19 -79q0 -34 11 -62t36 -49.5t50.5 -37t69.5 -30.5t76.5 -24t87.5 -22q59 -14 103 -27t96.5 -32.5t90.5 -40t76 -50.5t61.5 -64.5t38 -80t14.5 -98.5q0 -78 -30 -143.5t-80.5 -110.5
t-118 -76.5t-142 -46t-152.5 -14.5q-318 0 -516 202zM522 1430l166 272h174l-192 -272h-148z" />
    <glyph glyph-name="sacute" unicode="&#x15b;" horiz-adv-x="966" 
d="M84 135l76 125q55 -56 137.5 -92.5t175.5 -36.5q105 0 177.5 42t72.5 110q0 28 -15 51.5t-35 38.5t-57 29t-64 21.5t-73 18.5q-47 12 -77.5 20.5t-71 23t-67 29t-54.5 36.5t-44.5 47t-27 59.5t-10.5 75.5q0 65 32 120t83.5 90.5t114.5 55t128 19.5q184 0 344 -111
l-75 -121q-118 80 -267 80q-80 0 -140 -37.5t-60 -93.5q0 -23 7.5 -41t27 -32.5t34.5 -23.5t49.5 -19.5t50.5 -14.5t58 -14q65 -15 109.5 -28.5t98 -38.5t85.5 -55t54 -76.5t22 -104.5q0 -77 -36 -137.5t-95.5 -96.5t-130 -54.5t-146.5 -18.5q-128 0 -228 44.5t-163 110.5z
M387 1157l166 273h174l-192 -273h-148z" />
    <glyph glyph-name="Scircumflex" unicode="&#x15c;" horiz-adv-x="1226" 
d="M94 182l74 125q175 -178 442 -178q62 0 122.5 14.5t112.5 43t84 76.5t32 108q0 37 -12 67.5t-38 53.5t-52.5 40t-70 32t-75 24t-82.5 22q-63 15 -102 25.5t-95.5 29.5t-92 37.5t-75.5 47.5t-62.5 61.5t-38 77.5t-15.5 98q0 111 68 195t172 125t222 41q250 0 451 -150
l-76 -127q-165 127 -375 127q-36 0 -74.5 -7t-77.5 -23.5t-69.5 -40t-49.5 -59.5t-19 -79q0 -34 11 -62t36 -49.5t50.5 -37t69.5 -30.5t76.5 -24t87.5 -22q59 -14 103 -27t96.5 -32.5t90.5 -40t76 -50.5t61.5 -64.5t38 -80t14.5 -98.5q0 -78 -30 -143.5t-80.5 -110.5
t-118 -76.5t-142 -46t-152.5 -14.5q-318 0 -516 202zM352 1430l180 272h175l180 -272h-133l-136 178l-135 -178h-131z" />
    <glyph glyph-name="scircumflex" unicode="&#x15d;" horiz-adv-x="966" 
d="M84 135l76 125q55 -56 137.5 -92.5t175.5 -36.5q105 0 177.5 42t72.5 110q0 28 -15 51.5t-35 38.5t-57 29t-64 21.5t-73 18.5q-47 12 -77.5 20.5t-71 23t-67 29t-54.5 36.5t-44.5 47t-27 59.5t-10.5 75.5q0 65 32 120t83.5 90.5t114.5 55t128 19.5q184 0 344 -111
l-75 -121q-118 80 -267 80q-80 0 -140 -37.5t-60 -93.5q0 -23 7.5 -41t27 -32.5t34.5 -23.5t49.5 -19.5t50.5 -14.5t58 -14q65 -15 109.5 -28.5t98 -38.5t85.5 -55t54 -76.5t22 -104.5q0 -77 -36 -137.5t-95.5 -96.5t-130 -54.5t-146.5 -18.5q-128 0 -228 44.5t-163 110.5z
M225 1145l181 272h174l180 -272h-133l-135 178l-136 -178h-131z" />
    <glyph glyph-name="Scedilla" unicode="&#x15e;" horiz-adv-x="1226" 
d="M418 -379l45 74q77 -49 170 -49q65 0 104 32t39 72q0 34 -26.5 52t-63.5 18q-36 0 -70.5 -16.5t-50.5 -39.5l-88 33l109 183q-307 8 -492 202l74 125q175 -178 442 -178q62 0 122.5 14.5t112.5 43t84 76.5t32 108q0 37 -12 67.5t-38 53.5t-52.5 40t-70 32t-75 24
t-82.5 22q-63 15 -102 25.5t-95.5 29.5t-92 37.5t-75.5 47.5t-62.5 61.5t-38 77.5t-15.5 98q0 111 68 195t172 125t222 41q250 0 451 -150l-76 -127q-165 127 -375 127q-36 0 -74.5 -7t-77.5 -23.5t-69.5 -40t-49.5 -59.5t-19 -79q0 -34 11 -62t36 -49.5t50.5 -37
t69.5 -30.5t76.5 -24t87.5 -22q59 -14 103 -27t96.5 -32.5t90.5 -40t76 -50.5t61.5 -64.5t38 -80t14.5 -98.5q0 -88 -37 -159t-100.5 -117t-141 -74t-166.5 -37l-61 -109q44 19 84 19q74 0 124 -38t50 -102q0 -82 -72 -136t-180 -54q-129 0 -215 57z" />
    <glyph glyph-name="scedilla" unicode="&#x15f;" horiz-adv-x="966" 
d="M283 -379l45 74q77 -49 170 -49q65 0 104 32t39 72q0 34 -26.5 52t-63.5 18q-36 0 -70.5 -16.5t-50.5 -39.5l-88 33l109 183q-120 4 -214 47.5t-153 107.5l76 125q55 -56 137.5 -92.5t175.5 -36.5q105 0 177.5 42t72.5 110q0 28 -15 51.5t-35 38.5t-57 29t-64 21.5
t-73 18.5q-47 12 -77.5 20.5t-71 23t-67 29t-54.5 36.5t-44.5 47t-27 59.5t-10.5 75.5q0 65 32 120t83.5 90.5t114.5 55t128 19.5q184 0 344 -111l-75 -121q-118 80 -267 80q-80 0 -140 -37.5t-60 -93.5q0 -23 7.5 -41t27 -32.5t34.5 -23.5t49.5 -19.5t50.5 -14.5t58 -14
q65 -15 109.5 -28.5t98 -38.5t85.5 -55t54 -76.5t22 -104.5q0 -88 -48 -154.5t-120 -101.5t-160 -45l-63 -111q44 19 83 19q75 0 125 -38t50 -102q0 -82 -72 -136t-180 -54q-129 0 -215 57z" />
    <glyph glyph-name="Scaron" unicode="&#x160;" horiz-adv-x="1226" 
d="M94 182l74 125q175 -178 442 -178q62 0 122.5 14.5t112.5 43t84 76.5t32 108q0 37 -12 67.5t-38 53.5t-52.5 40t-70 32t-75 24t-82.5 22q-63 15 -102 25.5t-95.5 29.5t-92 37.5t-75.5 47.5t-62.5 61.5t-38 77.5t-15.5 98q0 111 68 195t172 125t222 41q250 0 451 -150
l-76 -127q-165 127 -375 127q-36 0 -74.5 -7t-77.5 -23.5t-69.5 -40t-49.5 -59.5t-19 -79q0 -34 11 -62t36 -49.5t50.5 -37t69.5 -30.5t76.5 -24t87.5 -22q59 -14 103 -27t96.5 -32.5t90.5 -40t76 -50.5t61.5 -64.5t38 -80t14.5 -98.5q0 -78 -30 -143.5t-80.5 -110.5
t-118 -76.5t-142 -46t-152.5 -14.5q-318 0 -516 202zM530 1430l-180 272h133l133 -178l136 178h133l-180 -272h-175z" />
    <glyph glyph-name="scaron" unicode="&#x161;" horiz-adv-x="966" 
d="M84 135l76 125q55 -56 137.5 -92.5t175.5 -36.5q105 0 177.5 42t72.5 110q0 28 -15 51.5t-35 38.5t-57 29t-64 21.5t-73 18.5q-47 12 -77.5 20.5t-71 23t-67 29t-54.5 36.5t-44.5 47t-27 59.5t-10.5 75.5q0 65 32 120t83.5 90.5t114.5 55t128 19.5q184 0 344 -111
l-75 -121q-118 80 -267 80q-80 0 -140 -37.5t-60 -93.5q0 -23 7.5 -41t27 -32.5t34.5 -23.5t49.5 -19.5t50.5 -14.5t58 -14q65 -15 109.5 -28.5t98 -38.5t85.5 -55t54 -76.5t22 -104.5q0 -77 -36 -137.5t-95.5 -96.5t-130 -54.5t-146.5 -18.5q-128 0 -228 44.5t-163 110.5z
M406 1145l-181 272h133l134 -178l135 178h133l-180 -272h-174z" />
    <glyph glyph-name="Tcommaaccent" unicode="&#x162;" horiz-adv-x="1230" 
d="M532 0v1182h-491v145h1147v-145h-492v-1182h-164zM451 -481q50 52 87 127t37 151q0 36 -18 72l119 41q22 -50 22 -94q0 -101 -46 -178.5t-101 -118.5h-100z" />
    <glyph glyph-name="tcommaaccent" unicode="&#x163;" horiz-adv-x="735" 
d="M176 299v565h-149v133h149v222l156 24v-246h342v-133h-342v-536q0 -62 11 -105t32 -64.5t44.5 -30.5t53.5 -9q41 0 82 13.5t61 27.5l21 14l51 -121q-105 -73 -229 -73q-132 0 -207.5 79t-75.5 240zM246 -481q51 52 88 127.5t37 150.5q0 34 -19 72l119 41q23 -52 23 -94
q0 -101 -46.5 -178.5t-101.5 -118.5h-100z" />
    <glyph glyph-name="Tcaron" unicode="&#x164;" horiz-adv-x="1230" 
d="M532 0v1182h-491v145h1147v-145h-492v-1182h-164zM528 1430l-180 272h133l133 -178l136 178h133l-181 -272h-174z" />
    <glyph glyph-name="tcaron" unicode="&#x165;" horiz-adv-x="735" 
d="M176 299v565h-149v133h149v222l156 24v-246h342v-133h-342v-536q0 -62 11 -105t32 -64.5t44.5 -30.5t53.5 -9q41 0 82 13.5t61 27.5l21 14l51 -121q-105 -73 -229 -73q-132 0 -207.5 79t-75.5 240zM422 1073q47 38 82 96t35 115q0 31 -17 55l111 31q22 -37 22 -72
q0 -53 -25.5 -102t-54 -76.5t-59.5 -46.5h-94z" />
    <glyph glyph-name="Tbar" unicode="&#x166;" horiz-adv-x="1228" 
d="M532 0v713h-315v121h315v348h-491v145h1147v-145h-492v-348h316v-121h-316v-713h-164z" />
    <glyph glyph-name="tbar" unicode="&#x167;" horiz-adv-x="735" 
d="M176 322v208h-106v97h106v237h-153v133h153v222l156 24v-246h342v-133h-342v-237h270v-97h-270v-217q0 -194 141 -194q41 0 82 13.5t61 27.5l21 14l53 -119q-104 -75 -231 -75q-133 0 -208 82.5t-75 259.5z" />
    <glyph glyph-name="Utilde" unicode="&#x168;" horiz-adv-x="1368" 
d="M684 -20q-151 0 -275.5 65t-199 187.5t-74.5 279.5v815h164v-815q0 -167 112 -275t273 -108q162 0 273.5 107.5t111.5 275.5v815h164v-815q0 -157 -75 -279.5t-199.5 -187.5t-274.5 -65zM416 1419q0 92 40 150.5t105 58.5q43 0 89.5 -24t84.5 -48t60 -24q59 0 59 96h98
q0 -92 -40 -150.5t-105 -58.5q-42 0 -88.5 24t-84.5 48.5t-59 24.5q-59 0 -59 -97h-100z" />
    <glyph glyph-name="utilde" unicode="&#x169;" horiz-adv-x="1099" 
d="M115 381v616h155v-583q0 -138 61 -210.5t195 -72.5q123 0 203 84t80 227v555h156v-997h-156v154q-108 -174 -322 -174q-123 0 -208.5 54t-124.5 142.5t-39 204.5zM276 1153q0 92 40.5 150.5t105.5 58.5q43 0 89.5 -24t84 -48t59.5 -24q31 0 45.5 27.5t14.5 68.5h98
q0 -92 -40 -150.5t-105 -58.5q-42 0 -88.5 24t-84.5 48t-59 24q-59 0 -59 -96h-101z" />
    <glyph glyph-name="Umacron" unicode="&#x16a;" horiz-adv-x="1368" 
d="M684 -20q-151 0 -275.5 65t-199 187.5t-74.5 279.5v815h164v-815q0 -167 112 -275t273 -108q162 0 273.5 107.5t111.5 275.5v815h164v-815q0 -157 -75 -279.5t-199.5 -187.5t-274.5 -65zM479 1450v121h410v-121h-410z" />
    <glyph glyph-name="umacron" unicode="&#x16b;" horiz-adv-x="1099" 
d="M115 381v616h155v-583q0 -138 61 -210.5t195 -72.5q123 0 203 84t80 227v555h156v-997h-156v154q-108 -174 -322 -174q-123 0 -208.5 54t-124.5 142.5t-39 204.5zM342 1167v121h410v-121h-410z" />
    <glyph glyph-name="Ubreve" unicode="&#x16c;" horiz-adv-x="1368" 
d="M684 -20q-151 0 -275.5 65t-199 187.5t-74.5 279.5v815h164v-815q0 -167 112 -275t273 -108q162 0 273.5 107.5t111.5 275.5v815h164v-815q0 -157 -75 -279.5t-199.5 -187.5t-274.5 -65zM684 1419q-96 0 -154.5 63.5t-58.5 155.5h94q6 -51 39.5 -78.5t79.5 -27.5
q47 0 80 28t37 78h96q0 -92 -58.5 -155.5t-154.5 -63.5z" />
    <glyph glyph-name="ubreve" unicode="&#x16d;" horiz-adv-x="1099" 
d="M115 381v616h155v-583q0 -138 61 -210.5t195 -72.5q123 0 203 84t80 227v555h156v-997h-156v154q-108 -174 -322 -174q-123 0 -208.5 54t-124.5 142.5t-39 204.5zM547 1135q-96 0 -154.5 63.5t-58.5 155.5h94q6 -51 39.5 -79t79.5 -28t79.5 28t37.5 79h96
q0 -92 -58.5 -155.5t-154.5 -63.5z" />
    <glyph glyph-name="Uring" unicode="&#x16e;" horiz-adv-x="1368" 
d="M684 -20q-151 0 -275.5 65t-199 187.5t-74.5 279.5v815h164v-815q0 -167 112 -275t273 -108q162 0 273.5 107.5t111.5 275.5v815h164v-815q0 -157 -75 -279.5t-199.5 -187.5t-274.5 -65zM481 1593q0 84 59.5 143.5t143.5 59.5t143.5 -59.5t59.5 -143.5q0 -85 -59 -144.5
t-144 -59.5t-144 59.5t-59 144.5zM573 1593q0 -48 32 -83t79 -35t79 35t32 83q0 47 -32.5 82t-78.5 35t-78.5 -35t-32.5 -82z" />
    <glyph glyph-name="uring" unicode="&#x16f;" horiz-adv-x="1099" 
d="M115 381v616h155v-583q0 -138 61 -210.5t195 -72.5q123 0 203 84t80 227v555h156v-997h-156v154q-108 -174 -322 -174q-123 0 -208.5 54t-124.5 142.5t-39 204.5zM344 1284q0 84 59.5 143.5t143.5 59.5t143.5 -59.5t59.5 -143.5q0 -85 -59 -145t-144 -60t-144 60t-59 145
zM436 1284q0 -48 32 -83.5t79 -35.5q46 0 78 35.5t32 83.5q0 47 -32 82t-78 35t-78.5 -35t-32.5 -82z" />
    <glyph glyph-name="Uhungarumlaut" unicode="&#x170;" horiz-adv-x="1368" 
d="M684 -20q-151 0 -275.5 65t-199 187.5t-74.5 279.5v815h164v-815q0 -167 112 -275t273 -108q162 0 273.5 107.5t111.5 275.5v815h164v-815q0 -157 -75 -279.5t-199.5 -187.5t-274.5 -65zM459 1423l151 258h174l-198 -258h-127zM721 1423l151 258h175l-199 -258h-127z" />
    <glyph glyph-name="uhungarumlaut" unicode="&#x171;" horiz-adv-x="1099" 
d="M115 381v616h155v-583q0 -138 61 -210.5t195 -72.5q123 0 203 84t80 227v555h156v-997h-156v154q-108 -174 -322 -174q-123 0 -208.5 54t-124.5 142.5t-39 204.5zM297 1141l152 258h174l-199 -258h-127zM559 1141l152 258h174l-199 -258h-127z" />
    <glyph glyph-name="Uogonek" unicode="&#x172;" horiz-adv-x="1368" 
d="M633 -262q0 133 90 244q-12 -2 -39 -2q-151 0 -275.5 65t-199 187.5t-74.5 279.5v815h164v-815q0 -167 112 -275t273 -108q162 0 273.5 107.5t111.5 275.5v815h164v-815q0 -190 -107 -326.5t-278 -183.5q-43 -38 -71.5 -102t-28.5 -121q0 -55 32 -87t82 -32q34 0 82 23
l33 -82q-67 -52 -152 -52q-77 0 -134.5 50.5t-57.5 138.5z" />
    <glyph glyph-name="uogonek" unicode="&#x173;" horiz-adv-x="1099" 
d="M690 -262q0 72 32 145t87 127v144q-108 -174 -322 -174q-123 0 -208.5 54t-124.5 142.5t-39 204.5v616h155v-583q0 -138 61 -210.5t195 -72.5q123 0 203 84t80 227v555h156v-997h-62q-42 -39 -70 -102t-28 -119q0 -55 32.5 -87t82.5 -32q33 0 81 23l33 -82
q-67 -52 -151 -52q-77 0 -135 51t-58 138z" />
    <glyph glyph-name="Wcircumflex" unicode="&#x174;" horiz-adv-x="1910" 
d="M465 -6l-445 1333h166l308 -924l53 -180q22 100 47 180l276 924h170l277 -924l47 -180q26 100 53 180l309 924h164l-444 -1333h-162l-280 913q-14 44 -26 96t-17 83l-5 30q-18 -111 -49 -209l-280 -913h-162zM688 1430l180 272h174l181 -272h-133l-136 178l-135 -178
h-131z" />
    <glyph glyph-name="wcircumflex" unicode="&#x175;" horiz-adv-x="1458" 
d="M352 -6l-342 1003h154l225 -661q10 -29 19 -65.5t12 -58.5l4 -22q13 80 31 146l196 661h156l199 -661q8 -29 15.5 -65.5t10.5 -58.5l4 -22q12 80 35 146l223 661h154l-340 -1003h-141l-205 665q-8 27 -16 63.5t-12 59.5l-5 23q-13 -85 -31 -146l-204 -665h-142zM463 1145
l180 272h174l180 -272h-133l-135 178l-135 -178h-131z" />
    <glyph glyph-name="Ycircumflex" unicode="&#x176;" horiz-adv-x="1275" 
d="M557 0v629l-537 698h193l268 -340q33 -41 72.5 -96t62.5 -90l23 -35q90 131 160 221l264 340h192l-534 -696v-631h-164zM373 1430l180 272h174l180 -272h-133l-135 178l-135 -178h-131z" />
    <glyph glyph-name="ycircumflex" unicode="&#x177;" horiz-adv-x="1077" 
d="M217 -301v147q88 0 140 36t100 138l20 46l-454 931h165l295 -624l68 -156q44 109 67 162l269 618h162l-467 -1046q-30 -69 -67.5 -117.5t-71.5 -74t-78 -40t-74.5 -17.5t-73.5 -3zM276 1145l181 272h174l180 -272h-133l-135 178l-135 -178h-132z" />
    <glyph glyph-name="Ydieresis" unicode="&#x178;" horiz-adv-x="1275" 
d="M557 0v629l-537 698h193l268 -340q33 -41 72.5 -96t62.5 -90l23 -35q90 131 160 221l264 340h192l-534 -696v-631h-164zM387 1511q0 38 27 65.5t65 27.5q37 0 63.5 -27.5t26.5 -65.5q0 -37 -26.5 -63.5t-63.5 -26.5q-38 0 -65 26.5t-27 63.5zM709 1511q0 38 28 65.5
t66 27.5q37 0 63.5 -27.5t26.5 -65.5q0 -37 -26.5 -63.5t-63.5 -26.5q-38 0 -66 26.5t-28 63.5z" />
    <glyph glyph-name="Zacute" unicode="&#x179;" horiz-adv-x="1232" 
d="M74 0v135l764 932q27 34 53.5 62.5t39.5 40.5l13 12h-833v145h1028v-135l-754 -920q-29 -36 -57 -67.5t-41 -45.5l-13 -14h885v-145h-1085zM510 1430l166 272h174l-193 -272h-147z" />
    <glyph glyph-name="zacute" unicode="&#x17a;" horiz-adv-x="931" 
d="M53 0v123l482 588q25 32 58 68.5t53 56.5l20 20h-592v141h782v-123l-479 -579l-135 -154h632v-141h-821zM358 1157l166 273h174l-192 -273h-148z" />
    <glyph glyph-name="Zdotaccent" unicode="&#x17b;" horiz-adv-x="1232" 
d="M74 0v135l764 932q27 34 53.5 62.5t39.5 40.5l13 12h-833v145h1028v-135l-754 -920q-29 -36 -57 -67.5t-41 -45.5l-13 -14h885v-145h-1085zM512 1522q0 43 30.5 73.5t73.5 30.5q42 0 72.5 -31t30.5 -73q0 -41 -31 -72t-72 -31q-42 0 -73 30.5t-31 72.5z" />
    <glyph glyph-name="zdotaccent" unicode="&#x17c;" horiz-adv-x="927" 
d="M53 0v123l482 588q25 32 58 68.5t53 56.5l20 20h-592v141h782v-123l-479 -579l-135 -154h632v-141h-821zM358 1278q0 43 31 73.5t74 30.5q41 0 71.5 -30.5t30.5 -73.5q0 -41 -30.5 -71.5t-71.5 -30.5q-43 0 -74 30.5t-31 71.5z" />
    <glyph glyph-name="Zcaron" unicode="&#x17d;" horiz-adv-x="1232" 
d="M74 0v135l764 932q27 34 53.5 62.5t39.5 40.5l13 12h-833v145h1028v-135l-754 -920q-29 -36 -57 -67.5t-41 -45.5l-13 -14h885v-145h-1085zM530 1430l-180 272h133l133 -178l136 178h133l-180 -272h-175z" />
    <glyph glyph-name="zcaron" unicode="&#x17e;" horiz-adv-x="929" 
d="M53 0v123l482 588q25 32 58 68.5t53 56.5l20 20h-592v141h782v-123l-479 -579l-135 -154h632v-141h-821zM377 1145l-180 272h133l133 -178l135 178h133l-180 -272h-174z" />
    <glyph glyph-name="florin" unicode="&#x192;" 
d="M-35 -113l82 101q68 -68 148 -68q117 0 155 143l176 658h-151l33 119h151l78 280q31 109 91.5 167.5t162.5 58.5q48 0 96.5 -16t72.5 -32l25 -16l-43 -117q-57 39 -116 39q-58 0 -89.5 -37t-50.5 -108l-61 -219h254l-33 -119h-252l-180 -664q-76 -282 -305 -282
q-137 0 -244 112z" />
    <glyph glyph-name="Aringacute" unicode="&#x1fa;" horiz-adv-x="1427" 
d="M16 0l627 1327h141l627 -1327h-170l-123 258h-811l-123 -258h-168zM369 393h688l-223 467q-16 33 -33.5 72t-32 73t-26 61.5t-20 48t-9.5 22.5q0 -1 -18.5 -46t-47 -112.5t-53.5 -120.5zM510 1581q0 56 29 103.5t77 74.5l146 258h162l-158 -241q65 -17 107 -71.5
t42 -123.5q0 -85 -59 -145t-143 -60q-85 0 -144 60t-59 145zM602 1581q0 -48 32 -83.5t79 -35.5q46 0 78 35.5t32 83.5q0 47 -32 82t-78 35t-78.5 -35t-32.5 -82z" />
    <glyph glyph-name="aringacute" unicode="&#x1fb;" horiz-adv-x="1220" 
d="M84 498q0 142 62.5 261t173.5 189t245 70q115 0 210.5 -51t154.5 -142v172h155v-997h-155v170q-58 -91 -153.5 -140.5t-211.5 -49.5q-134 0 -245 69.5t-173.5 188.5t-62.5 260zM244 498q0 -156 98.5 -261.5t247.5 -105.5q144 0 242 104.5t98 262.5q0 156 -97 262
t-243 106q-148 0 -247 -106t-99 -262zM385 1325q0 55 28 102t74 74l148 260h162l-158 -241q66 -17 109 -71.5t43 -123.5q0 -85 -59 -145t-144 -60t-144 60t-59 145zM477 1325q0 -48 32 -83.5t79 -35.5q46 0 78 35.5t32 83.5q0 47 -32 82t-78 35t-78.5 -35t-32.5 -82z" />
    <glyph glyph-name="AEacute" unicode="&#x1fc;" horiz-adv-x="1937" 
d="M16 0l863 1327h956v-145h-725v-400h672v-143h-672v-494h754v-145h-918v258h-581l-166 -258h-183zM451 393h495v787q-51 -95 -108 -185zM1139 1430l166 272h174l-193 -272h-147z" />
    <glyph glyph-name="aeacute" unicode="&#x1fd;" horiz-adv-x="1875" 
d="M84 272q0 92 43.5 159.5t118.5 104t160.5 53.5t183.5 17q133 0 231 -10q-4 138 -79.5 210.5t-204.5 72.5q-55 0 -107 -8.5t-87 -20.5t-62 -24t-39 -20l-13 -9l-63 112q5 4 15.5 11.5t45.5 26.5t74.5 33t102 26t128.5 12q145 0 245 -61.5t147 -178.5q64 110 172.5 175
t236.5 65q130 0 240.5 -69.5t174.5 -188t64 -256.5l-4 -64h-813q20 -143 126 -232t249 -89q84 0 161.5 30.5t135.5 83.5l70 -114q-75 -66 -172 -102.5t-203 -36.5q-147 0 -268 68.5t-181 187.5q-39 -82 -112 -140.5t-164 -87t-193 -28.5q-163 0 -261.5 77.5t-98.5 214.5z
M240 285q0 -83 60.5 -125.5t152.5 -42.5q180 0 279 92.5t99 236.5v35q-61 6 -241 6q-68 0 -127 -10.5t-111 -32.5t-82 -63t-30 -96zM995 563h660q-13 136 -107 226t-221 90q-124 0 -218.5 -90.5t-113.5 -225.5zM788 1157l166 273h174l-192 -273h-148z" />
    <glyph glyph-name="Oslashacute" unicode="&#x1fe;" horiz-adv-x="1570" 
d="M694 1430l166 272h174l-192 -272h-148zM786 1348q167 0 312 -74l114 190l82 -49l-112 -188q137 -94 217 -242.5t80 -320.5q0 -187 -91 -344t-250.5 -248.5t-351.5 -91.5q-169 0 -313 69l-113 -188l-81 47l112 190q-138 93 -217.5 242t-79.5 324q0 139 53.5 265.5
t145.5 218.5t220.5 146t272.5 54zM266 664q0 -129 55.5 -243t151.5 -188l547 910q-110 55 -234 55q-144 0 -263.5 -71.5t-188 -194t-68.5 -268.5zM786 129q144 0 264 72.5t188.5 195t68.5 267.5q0 128 -55.5 240.5t-151.5 187.5l-545 -908q110 -55 231 -55z" />
    <glyph glyph-name="oslashacute" unicode="&#x1ff;" horiz-adv-x="1216" 
d="M508 1157l166 273h174l-193 -273h-147zM84 498q0 106 41.5 202t112 166t167.5 111t203 41q118 0 223 -51l97 159l78 -47l-95 -157q102 -72 162 -184t60 -240q0 -140 -70.5 -259.5t-191.5 -189t-263 -69.5q-114 0 -229 51l-90 -152l-80 47l92 152q-100 72 -158.5 182.5
t-58.5 237.5zM457 162q70 -31 151 -31q152 0 258.5 107.5t106.5 259.5q0 86 -38 162.5t-104 127.5zM244 498q0 -85 36.5 -160t100.5 -127l371 625q-64 30 -144 30q-152 0 -258 -107.5t-106 -260.5z" />
    <glyph glyph-name="Scommaaccent" unicode="&#x218;" horiz-adv-x="1226" 
d="M94 182l74 125q175 -178 442 -178q62 0 122.5 14.5t112.5 43t84 76.5t32 108q0 37 -12 67.5t-38 53.5t-52.5 40t-70 32t-75 24t-82.5 22q-63 15 -102 25.5t-95.5 29.5t-92 37.5t-75.5 47.5t-62.5 61.5t-38 77.5t-15.5 98q0 111 68 195t172 125t222 41q250 0 451 -150
l-76 -127q-165 127 -375 127q-36 0 -74.5 -7t-77.5 -23.5t-69.5 -40t-49.5 -59.5t-19 -79q0 -34 11 -62t36 -49.5t50.5 -37t69.5 -30.5t76.5 -24t87.5 -22q59 -14 103 -27t96.5 -32.5t90.5 -40t76 -50.5t61.5 -64.5t38 -80t14.5 -98.5q0 -78 -30 -143.5t-80.5 -110.5
t-118 -76.5t-142 -46t-152.5 -14.5q-318 0 -516 202zM461 -481q51 52 88 127.5t37 150.5q0 34 -19 72l119 41q23 -52 23 -94q0 -101 -46.5 -178.5t-101.5 -118.5h-100z" />
    <glyph glyph-name="scommaaccent" unicode="&#x219;" horiz-adv-x="966" 
d="M84 135l76 125q55 -56 137.5 -92.5t175.5 -36.5q105 0 177.5 42t72.5 110q0 28 -15 51.5t-35 38.5t-57 29t-64 21.5t-73 18.5q-47 12 -77.5 20.5t-71 23t-67 29t-54.5 36.5t-44.5 47t-27 59.5t-10.5 75.5q0 65 32 120t83.5 90.5t114.5 55t128 19.5q184 0 344 -111
l-75 -121q-118 80 -267 80q-80 0 -140 -37.5t-60 -93.5q0 -23 7.5 -41t27 -32.5t34.5 -23.5t49.5 -19.5t50.5 -14.5t58 -14q65 -15 109.5 -28.5t98 -38.5t85.5 -55t54 -76.5t22 -104.5q0 -77 -36 -137.5t-95.5 -96.5t-130 -54.5t-146.5 -18.5q-128 0 -228 44.5t-163 110.5z
M326 -481q51 52 88 127.5t37 150.5q0 34 -19 72l119 41q22 -50 22 -94q0 -101 -46 -178.5t-101 -118.5h-100z" />
    <glyph glyph-name="circumflex" unicode="&#x2c6;" horiz-adv-x="696" 
d="M82 1145l180 272h174l180 -272h-133l-135 178l-135 -178h-131z" />
    <glyph glyph-name="caron" unicode="&#x2c7;" horiz-adv-x="696" 
d="M260 1145l-180 272h133l133 -178l135 178h133l-180 -272h-174z" />
    <glyph glyph-name="breve" unicode="&#x2d8;" horiz-adv-x="696" 
d="M348 1135q-96 0 -154.5 63.5t-58.5 155.5h94q6 -51 39.5 -79t79.5 -28t79.5 28t37.5 79h96q0 -92 -58.5 -155.5t-154.5 -63.5z" />
    <glyph glyph-name="dotaccent" unicode="&#x2d9;" horiz-adv-x="696" 
d="M244 1278q0 43 30.5 73.5t73.5 30.5q42 0 72.5 -31t30.5 -73q0 -41 -31 -71.5t-72 -30.5q-43 0 -73.5 30.5t-30.5 71.5z" />
    <glyph glyph-name="ring" unicode="&#x2da;" horiz-adv-x="696" 
d="M145 1284q0 84 59.5 143.5t143.5 59.5t143.5 -59.5t59.5 -143.5q0 -85 -59 -145t-144 -60t-144 60t-59 145zM238 1284q0 -48 32 -83.5t78 -35.5q47 0 79 35.5t32 83.5q0 47 -32.5 82t-78.5 35t-78 -35t-32 -82z" />
    <glyph glyph-name="ogonek" unicode="&#x2db;" horiz-adv-x="696" 
d="M176 -262q0 72 32 145t87 127h106q-46 -37 -78 -104t-32 -127q0 -55 32.5 -87t82.5 -32q33 0 81 23l33 -82q-67 -52 -151 -52q-77 0 -135 51t-58 138z" />
    <glyph glyph-name="tilde" unicode="&#x2dc;" horiz-adv-x="696" 
d="M78 1153q0 92 40 150.5t105 58.5q43 0 89.5 -24t84.5 -48t60 -24q59 0 59 96h98q0 -92 -40 -150.5t-105 -58.5q-42 0 -88.5 24t-84 48t-58.5 24q-60 0 -60 -96h-100z" />
    <glyph glyph-name="hungarumlaut" unicode="&#x2dd;" horiz-adv-x="696" 
d="M53 1141l152 258h174l-199 -258h-127zM315 1141l152 258h174l-199 -258h-127z" />
    <glyph glyph-name="pi" unicode="&#x3c0;" horiz-adv-x="1533" 
d="M82 664q0 186 91.5 344t249.5 250t343 92q186 0 344 -92t250 -250t92 -344q0 -185 -92 -343t-250 -249.5t-344 -91.5q-139 0 -265.5 54.5t-218 146t-146 218t-54.5 265.5zM483 260v805h365q136 0 231 -95.5t95 -230.5q0 -138 -94.5 -232.5t-231.5 -94.5h-268v-152h-97z
M580 510h268q97 0 162 66t65 163q0 95 -65.5 163.5t-161.5 68.5h-268v-461zM164 664q0 -123 48 -235.5t128.5 -194.5t192 -130.5t233.5 -48.5q123 0 234.5 48.5t192 130.5t128 194.5t47.5 235.5q0 164 -80 304t-219 222t-303 82q-122 0 -233.5 -48.5t-192 -130t-128.5 -194
t-48 -235.5z" />
    <glyph glyph-name="Wgrave" unicode="&#x1e80;" horiz-adv-x="1910" 
d="M465 -6l-445 1333h166l308 -924l53 -180q22 100 47 180l276 924h170l277 -924l47 -180q26 100 53 180l309 924h164l-444 -1333h-162l-280 913q-14 44 -26 96t-17 83l-5 30q-18 -111 -49 -209l-280 -913h-162zM907 1430l-192 272h174l166 -272h-148z" />
    <glyph glyph-name="wgrave" unicode="&#x1e81;" horiz-adv-x="1458" 
d="M352 -6l-342 1003h154l225 -661q10 -29 19 -65.5t12 -58.5l4 -22q13 80 31 146l196 661h156l199 -661q8 -29 15.5 -65.5t10.5 -58.5l4 -22q12 80 35 146l223 661h154l-340 -1003h-141l-205 665q-8 27 -16 63.5t-12 59.5l-5 23q-13 -85 -31 -146l-204 -665h-142zM682 1157
l-193 273h175l165 -273h-147z" />
    <glyph glyph-name="Wacute" unicode="&#x1e82;" horiz-adv-x="1910" 
d="M465 -6l-445 1333h166l308 -924l53 -180q22 100 47 180l276 924h170l277 -924l47 -180q26 100 53 180l309 924h164l-444 -1333h-162l-280 913q-14 44 -26 96t-17 83l-5 30q-18 -111 -49 -209l-280 -913h-162zM846 1430l166 272h174l-193 -272h-147z" />
    <glyph glyph-name="wacute" unicode="&#x1e83;" horiz-adv-x="1458" 
d="M352 -6l-342 1003h154l225 -661q10 -29 19 -65.5t12 -58.5l4 -22q13 80 31 146l196 661h156l199 -661q8 -29 15.5 -65.5t10.5 -58.5l4 -22q12 80 35 146l223 661h154l-340 -1003h-141l-205 665q-8 27 -16 63.5t-12 59.5l-5 23q-13 -85 -31 -146l-204 -665h-142zM629 1157
l166 273h174l-193 -273h-147z" />
    <glyph glyph-name="Wdieresis" unicode="&#x1e84;" horiz-adv-x="1910" 
d="M465 -6l-445 1333h166l308 -924l53 -180q22 100 47 180l276 924h170l277 -924l47 -180q26 100 53 180l309 924h164l-444 -1333h-162l-280 913q-14 44 -26 96t-17 83l-5 30q-18 -111 -49 -209l-280 -913h-162zM702 1530q0 38 27.5 65t65.5 27q37 0 63.5 -27t26.5 -65
q0 -37 -26.5 -63.5t-63.5 -26.5q-38 0 -65.5 26.5t-27.5 63.5zM1024 1530q0 38 28 65t66 27q37 0 63.5 -27t26.5 -65q0 -37 -26.5 -63.5t-63.5 -26.5q-38 0 -66 26.5t-28 63.5z" />
    <glyph glyph-name="wdieresis" unicode="&#x1e85;" horiz-adv-x="1458" 
d="M352 -6l-342 1003h154l225 -661q10 -29 19 -65.5t12 -58.5l4 -22q13 80 31 146l196 661h156l199 -661q8 -29 15.5 -65.5t10.5 -58.5l4 -22q12 80 35 146l223 661h154l-340 -1003h-141l-205 665q-8 27 -16 63.5t-12 59.5l-5 23q-13 -85 -31 -146l-204 -665h-142zM477 1260
q0 38 27 65t65 27q37 0 63.5 -27t26.5 -65q0 -37 -26.5 -64t-63.5 -27q-38 0 -65 27t-27 64zM799 1260q0 38 28 65t66 27q37 0 63.5 -27t26.5 -65q0 -37 -26.5 -64t-63.5 -27q-38 0 -66 27t-28 64z" />
    <glyph glyph-name="Ygrave" unicode="&#x1ef2;" horiz-adv-x="1275" 
d="M557 0v629l-537 698h193l268 -340q33 -41 72.5 -96t62.5 -90l23 -35q90 131 160 221l264 340h192l-534 -696v-631h-164zM586 1430l-193 272h174l166 -272h-147z" />
    <glyph glyph-name="ygrave" unicode="&#x1ef3;" horiz-adv-x="1077" 
d="M217 -301v147q88 0 140 36t100 138l20 46l-454 931h165l295 -624l68 -156q44 109 67 162l269 618h162l-467 -1046q-30 -69 -67.5 -117.5t-71.5 -74t-78 -40t-74.5 -17.5t-73.5 -3zM500 1157l-193 273h174l166 -273h-147z" />
    <glyph glyph-name="endash" unicode="&#x2013;" horiz-adv-x="1218" 
d="M41 416v139h1137v-139h-1137z" />
    <glyph glyph-name="emdash" unicode="&#x2014;" horiz-adv-x="1449" 
d="M41 416v139h1368v-139h-1368z" />
    <glyph glyph-name="quoteleft" unicode="&#x2018;" horiz-adv-x="432" 
d="M84 858l143 469h121l-100 -469h-164z" />
    <glyph glyph-name="quoteright" unicode="&#x2019;" horiz-adv-x="432" 
d="M84 858l100 469h164l-143 -469h-121z" />
    <glyph glyph-name="quotesinglbase" unicode="&#x201a;" horiz-adv-x="432" 
d="M84 -281l100 469h164l-143 -469h-121z" />
    <glyph glyph-name="quotedblleft" unicode="&#x201c;" horiz-adv-x="741" 
d="M84 858l143 469h121l-100 -469h-164zM393 858l144 469h120l-100 -469h-164z" />
    <glyph glyph-name="quotedblright" unicode="&#x201d;" horiz-adv-x="741" 
d="M84 858l100 469h164l-143 -469h-121zM393 858l101 469h163l-143 -469h-121z" />
    <glyph glyph-name="quotedblbase" unicode="&#x201e;" horiz-adv-x="741" 
d="M84 -281l100 469h164l-143 -469h-121zM393 -281l101 469h163l-143 -469h-121z" />
    <glyph glyph-name="dagger" unicode="&#x2020;" horiz-adv-x="866" 
d="M362 297v696h-288v119h288v350h130v-350h290v-119h-290v-696h-130z" />
    <glyph glyph-name="daggerdbl" unicode="&#x2021;" horiz-adv-x="866" 
d="M362 37v426h-288v119h288v411h-288v119h288v350h130v-350h290v-119h-290v-411h290v-119h-290v-426h-130z" />
    <glyph glyph-name="bullet" unicode="&#x2022;" horiz-adv-x="757" 
d="M115 571q0 110 77.5 187.5t186.5 77.5q110 0 187 -77.5t77 -187.5q0 -109 -77 -186.5t-187 -77.5q-109 0 -186.5 77.5t-77.5 186.5z" />
    <glyph glyph-name="ellipsis" unicode="&#x2026;" horiz-adv-x="1386" 
d="M102 92q0 47 33 80t80 33t80 -33t33 -80t-33 -79.5t-80 -32.5t-80 32.5t-33 79.5zM582 92q0 47 32.5 80t79.5 33q46 0 79.5 -33t33.5 -80t-33.5 -79.5t-79.5 -32.5q-47 0 -79.5 32.5t-32.5 79.5zM1057 92q0 47 33 80t79 33q47 0 81 -33t34 -80t-33.5 -79.5t-81.5 -32.5
q-47 0 -79.5 32.5t-32.5 79.5z" />
    <glyph glyph-name="perthousand" unicode="&#x2030;" horiz-adv-x="2482" 
d="M227 942q0 -126 50.5 -207.5t134.5 -81.5q81 0 131.5 81.5t50.5 207.5t-50.5 207.5t-131.5 81.5q-84 0 -134.5 -81.5t-50.5 -207.5zM102 942q0 178 87.5 292t222.5 114q134 0 220.5 -114t86.5 -292t-86.5 -291.5t-220.5 -113.5q-135 0 -222.5 113.5t-87.5 291.5z
M1151 385q0 -126 50 -206.5t132 -80.5q83 0 134 80.5t51 206.5t-51.5 207.5t-133.5 81.5t-132 -81.5t-50 -207.5zM1026 385q0 179 86.5 292.5t220.5 113.5q135 0 222 -113.5t87 -292.5q0 -178 -87 -291.5t-222 -113.5q-134 0 -220.5 113.5t-86.5 291.5zM1888 385
q0 -126 50.5 -206.5t134.5 -80.5q81 0 132.5 81t51.5 206t-51.5 207t-132.5 82q-84 0 -134.5 -81.5t-50.5 -207.5zM1763 385q0 179 87 292.5t223 113.5q135 0 221 -113t86 -293q0 -178 -86 -291.5t-221 -113.5t-222.5 113.5t-87.5 291.5zM426 20l815 1358l90 -51l-815 -1358
z" />
    <glyph glyph-name="guilsinglleft" unicode="&#x2039;" horiz-adv-x="567" 
d="M68 457v80l348 342l78 -78l-285 -303l285 -305l-78 -78z" />
    <glyph glyph-name="guilsinglright" unicode="&#x203a;" horiz-adv-x="567" 
d="M147 115l-77 78l284 305l-284 303l77 78l351 -342v-80z" />
    <glyph glyph-name="fraction" unicode="&#x2044;" horiz-adv-x="991" 
d="M80 20l815 1358l90 -51l-815 -1358z" />
    <glyph glyph-name="zerosuperior" unicode="&#x2070;" horiz-adv-x="901" 
d="M225 1069q0 -160 62.5 -260t163.5 -100q100 0 162.5 100t62.5 260q0 158 -63 259.5t-162 101.5q-101 0 -163.5 -101.5t-62.5 -259.5zM82 1069q0 212 104 347.5t265 135.5q160 0 263 -135.5t103 -347.5t-103 -347.5t-263 -135.5q-161 0 -265 135.5t-104 347.5z" />
    <glyph glyph-name="foursuperior" unicode="&#x2074;" horiz-adv-x="831" 
d="M514 598v199h-440v96l387 659l112 -55l-344 -577h285v213h135v-213h111v-123h-111v-199h-135z" />
    <glyph glyph-name="fivesuperior" unicode="&#x2075;" horiz-adv-x="808" 
d="M82 670l57 104q89 -76 232 -76q103 0 163 56t60 133q0 90 -62 140t-155 50q-106 0 -197 -63l-67 51v467h569v-123h-442v-244q71 29 157 29q141 0 236.5 -82t95.5 -225q0 -136 -95.5 -226t-260.5 -90q-72 0 -150.5 24t-140.5 75z" />
    <glyph glyph-name="sixsuperior" unicode="&#x2076;" horiz-adv-x="868" 
d="M92 922q0 111 90 227l338 420l98 -82l-206 -246q27 4 37 4q139 0 233 -94.5t94 -228.5q0 -142 -96.5 -240t-245.5 -98q-150 0 -246 98t-96 240zM229 918q0 -88 59 -148.5t144 -60.5q88 0 147.5 60.5t59.5 148.5q0 91 -59.5 151.5t-147.5 60.5q-85 0 -144 -61t-59 -151z
" />
    <glyph glyph-name="sevensuperior" unicode="&#x2077;" horiz-adv-x="739" 
d="M121 596l422 817h-498v123h660v-96l-437 -844h-147z" />
    <glyph glyph-name="eightsuperior" unicode="&#x2078;" horiz-adv-x="868" 
d="M88 887q0 85 43.5 154.5t118.5 101.5q-92 72 -92 174q0 103 77 168t199 65q120 0 197.5 -65.5t77.5 -167.5q0 -101 -93 -174q75 -32 118.5 -101.5t43.5 -154.5q0 -134 -95 -218.5t-249 -84.5q-155 0 -250.5 84.5t-95.5 218.5zM231 893q0 -81 55 -131.5t148 -50.5
q91 0 147 51t56 131q0 79 -53 129.5t-150 50.5q-99 0 -151 -50.5t-52 -129.5zM287 1309q0 -54 39 -89.5t108 -35.5q68 0 107 36t39 89q0 55 -40.5 90t-105.5 35q-66 0 -106.5 -34.5t-40.5 -90.5z" />
    <glyph glyph-name="ninesuperior" unicode="&#x2079;" horiz-adv-x="868" 
d="M260 659l197 234q-19 -4 -35 -4q-140 0 -235 94t-95 229q0 141 97 238.5t247 97.5q148 0 244 -97.5t96 -238.5q0 -111 -90 -227l-328 -407zM229 1214q0 -89 59.5 -149.5t147.5 -60.5q85 0 144 60.5t59 149.5q0 88 -59 149.5t-144 61.5q-87 0 -147 -61.5t-60 -149.5z" />
    <glyph glyph-name="n.sups" unicode="&#x207f;" horiz-adv-x="774" 
d="M106 678v657h127v-71q74 86 201 86q122 0 184 -73t62 -200v-399h-127v383q0 81 -34 122.5t-111 41.5q-73 0 -124 -50.5t-51 -130.5v-366h-127z" />
    <glyph glyph-name="zeroinferior" unicode="&#x2080;" horiz-adv-x="901" 
d="M225 248q0 -160 62.5 -260.5t163.5 -100.5q100 0 162.5 100.5t62.5 260.5q0 157 -63 258.5t-162 101.5q-101 0 -163.5 -101t-62.5 -259zM82 248q0 212 104 347.5t265 135.5q160 0 263 -135.5t103 -347.5t-103 -348t-263 -136q-161 0 -265 136t-104 348z" />
    <glyph glyph-name="oneinferior" unicode="&#x2081;" horiz-adv-x="655" 
d="M330 -225v760l-215 -158l-60 94l305 244h103v-940h-133z" />
    <glyph glyph-name="twoinferior" unicode="&#x2082;" horiz-adv-x="792" 
d="M63 -225v96q101 89 148.5 131.5t117 107.5t100 100.5t64.5 81.5t46 81.5t12 70.5q0 70 -46.5 115t-131.5 45q-132 0 -228 -115l-73 93q61 68 133 106.5t178 38.5q143 0 226 -76.5t83 -197.5q0 -70 -30.5 -139.5t-92.5 -140.5t-131 -133.5t-170 -141.5h445v-123h-650z" />
    <glyph glyph-name="threeinferior" unicode="&#x2083;" horiz-adv-x="821" 
d="M61 -125l70 94q89 -84 234 -84q108 0 167.5 60t59.5 141q0 75 -54.5 128.5t-158.5 53.5q-72 0 -137 -41l-52 80l314 287h-410v121h592v-107l-256 -241h8q125 0 211 -84t86 -203q0 -130 -99.5 -224t-266.5 -94q-84 0 -167.5 27t-140.5 86z" />
    <glyph glyph-name="fourinferior" unicode="&#x2084;" horiz-adv-x="831" 
d="M514 -223v198h-440v97l387 659l112 -55l-344 -578h285v213h135v-213h111v-123h-111v-198h-135z" />
    <glyph glyph-name="fiveinferior" unicode="&#x2085;" horiz-adv-x="808" 
d="M82 -150l57 105q89 -76 232 -76q103 0 163 56t60 133q0 90 -62 140t-155 50q-106 0 -197 -63l-67 51v467h569v-123h-442v-244q71 29 157 29q141 0 236.5 -82t95.5 -225q0 -136 -95.5 -226t-260.5 -90q-72 0 -150.5 23.5t-140.5 74.5z" />
    <glyph glyph-name="sixinferior" unicode="&#x2086;" horiz-adv-x="868" 
d="M92 100q0 112 90 228l338 420l98 -82l-206 -246q27 4 37 4q138 0 232.5 -94.5t94.5 -229.5q0 -142 -96.5 -240t-245.5 -98q-150 0 -246 98t-96 240zM229 96q0 -88 59 -148.5t144 -60.5q88 0 147.5 60.5t59.5 148.5q0 91 -59.5 152t-147.5 61q-85 0 -144 -61.5t-59 -151.5
z" />
    <glyph glyph-name="seveninferior" unicode="&#x2087;" horiz-adv-x="739" 
d="M121 -225l422 817h-498v123h660v-97l-437 -843h-147z" />
    <glyph glyph-name="eightinferior" unicode="&#x2088;" horiz-adv-x="868" 
d="M88 66q0 85 43.5 154.5t118.5 101.5q-92 72 -92 174q0 103 77 168t199 65q120 0 197.5 -65.5t77.5 -167.5q0 -101 -93 -174q75 -32 118.5 -101.5t43.5 -154.5q0 -134 -95 -219t-249 -85t-250 85t-96 219zM231 72q0 -81 55.5 -132t147.5 -51q91 0 147 51.5t56 131.5
q0 79 -53 129.5t-150 50.5q-99 0 -151 -50.5t-52 -129.5zM287 487q0 -54 39 -89.5t108 -35.5q68 0 107 36t39 89q0 55 -40.5 90t-105.5 35q-66 0 -106.5 -34.5t-40.5 -90.5z" />
    <glyph glyph-name="nineinferior" unicode="&#x2089;" horiz-adv-x="868" 
d="M260 -162l197 234q-19 -4 -35 -4q-140 0 -235 94t-95 229q0 141 97 238.5t247 97.5q148 0 244 -97.5t96 -238.5q0 -111 -90 -227l-328 -408zM229 393q0 -89 59.5 -150t147.5 -61q85 0 144 61t59 150q0 88 -59 149.5t-144 61.5q-87 0 -147 -61.5t-60 -149.5z" />
    <glyph glyph-name="Euro" unicode="&#x20ac;" horiz-adv-x="1191" 
d="M70 475l30 115h117q0 11 -1 37t-1 41q0 53 4 69h-129l31 113h110q46 227 189 362.5t344 135.5q118 0 217.5 -51.5t171.5 -145.5l-96 -100q-114 151 -287 151q-136 0 -234.5 -96.5t-134.5 -255.5h529l-29 -113h-520q-4 -12 -4 -69l4 -78h489l-30 -115h-441
q37 -160 135.5 -256t233.5 -96q101 0 175 46.5t136 137.5l107 -90q-73 -113 -182 -175t-240 -62q-200 0 -343 135.5t-188 359.5h-163z" />
    <glyph glyph-name="trademark" unicode="&#x2122;" horiz-adv-x="1630" 
d="M635 735v592h84l215 -213l213 213h86v-592h-117v402l-182 -179l-186 181v-404h-113zM242 735v486h-199v106h512v-106h-199v-486h-114z" />
    <glyph glyph-name="minus" unicode="&#x2212;" 
d="M125 475v133h913v-133h-913z" />
    <glyph glyph-name="approxequal" unicode="&#x2248;" 
d="M168 590q0 46 11.5 87.5t35 77.5t66 57.5t98.5 21.5q50 0 103.5 -19t92 -42.5t86.5 -42.5t89 -19q42 0 66 29t24 67h155q0 -46 -11.5 -87.5t-36 -78t-68 -57.5t-101.5 -21q-55 0 -110.5 19t-93.5 42.5t-82 42.5t-78 19q-42 0 -66 -29t-24 -67h-156zM168 238
q0 63 19 115.5t68.5 90t123.5 37.5q50 0 103.5 -19t92 -42.5t86.5 -42.5t89 -19q42 0 66 29.5t24 67.5h155q0 -46 -11.5 -87.5t-36 -78t-68 -57.5t-101.5 -21q-55 0 -110.5 19t-93.5 42.5t-82 42.5t-78 19q-42 0 -66 -29t-24 -67h-156z" />
    <glyph glyph-name="notequal" unicode="&#x2260;" 
d="M246 102l145 240h-266v133h346l104 174h-450v133h532l174 289l82 -47l-147 -242h272v-133h-352l-106 -174h458v-133h-538l-172 -289z" />
    <glyph glyph-name="lessequal" unicode="&#x2264;" 
d="M125 61v134h913v-134h-913zM125 600v137l913 301v-141q-58 -18 -243.5 -80t-310.5 -99t-205 -50q85 -21 191.5 -52t181.5 -55t202 -64.5t184 -58.5v-139z" />
    <glyph glyph-name="greaterequal" unicode="&#x2265;" 
d="M125 61v134h913v-134h-913zM125 299v139l534 178q47 16 103.5 29t89.5 18l33 5q-120 18 -226 53l-534 176v141l913 -301v-137z" />
    <glyph glyph-name="commainferior" unicode="&#xf6e1;" horiz-adv-x="331" 
d="M23 -377l69 350h144l-121 -350h-92z" />
    <glyph glyph-name="commasuperior" unicode="&#xf6e2;" horiz-adv-x="331" 
d="M23 444l69 351h144l-121 -351h-92z" />
    <glyph glyph-name="periodinferior" unicode="&#xf6e7;" horiz-adv-x="331" 
d="M57 -135q0 41 30.5 71.5t70.5 30.5q42 0 72 -30t30 -72q0 -41 -30 -71t-72 -30q-40 0 -70.5 30t-30.5 71z" />
    <glyph glyph-name="periodsuperior" unicode="&#xf6e8;" horiz-adv-x="331" 
d="M57 686q0 42 30.5 72t70.5 30q43 0 72.5 -29.5t29.5 -72.5q0 -40 -30 -70t-72 -30q-40 0 -70.5 30t-30.5 70z" />
    <glyph glyph-name="apple" unicode="&#xf8ff;" horiz-adv-x="1648" 
d="M-4 -18q3 13 29.5 28t70.5 34.5t62 29.5q1 11 10 55q11 37 25 74t36.5 92.5t30.5 75.5q-30 4 -61 10t-73.5 15.5t-62.5 13.5q26 172 39 225q0 10 4.5 30.5t4.5 32.5v9q-6 6 -24.5 7t-23.5 3q0 33 19 92.5t22 83.5q52 164 56 176q15 3 58.5 14t74.5 17t63 8q0 32 -20 68
q1 1 10 10.5t16 19t7 15.5t-4 8q-40 14 -72 14v8h76v146q179 5 202 8q-9 -38 -28 -76l-17 -80q19 3 42 4t51.5 1t44.5 1l2 19q5 38 32 80l4 10q20 -3 66 -5t74 -9q10 -33 10 -64q0 -19 -2 -29l96 -14l68 8v17q0 126 -15 190q10 -2 45 -2q72 0 80 4q65 10 90 10
q-3 -25 -9 -63.5t-9.5 -69.5t-3.5 -63v-17q12 -4 47.5 -6t48.5 -6q-7 -2 -39.5 -4.5t-44.5 -9.5l41 -72q-14 -39 -20 -86q142 32 159 33q2 -4 2 -10q0 -8 -5 -29.5t-5 -34.5q14 -18 33 -53t31 -61l12 -25l57 -270q4 -3 7.5 -44.5t6.5 -110.5t5 -95l2 -19h-98
q62 -117 96 -170l37 -53l-31 -22l57 -43q-12 -3 -22 -3q-16 0 -45.5 10.5t-42.5 12.5q-1 -8 -3.5 -12t-6 -4.5t-8.5 -1t-11 -0.5q-5 1 -9 4t-6.5 8t-4 8.5t-3 9.5t-2.5 8q-8 12 -10 23q-12 22 -38 67t-45 81t-34 71q-9 6 -22 6l-39 -2q-26 -72 -55 -127q-2 -15 -3 -31
t-1.5 -35t-1.5 -30q0 -35 -13 -61l-49 -13v11q0 6 -4 8q-8 -3 -32.5 -22t-41.5 -19l25 96q4 11 18.5 51.5t21 59.5t14 52t9.5 62q-12 -1 -49 -10.5t-61 -9.5h-27q-12 -62 -12 -117q0 -45 6 -88q2 -14 25 -133q7 -28 8 -29q-37 4 -96 53q-3 4 -4 5.5t-2.5 3t-2.5 1.5t-3.5 1
t-4.5 2l-12 -8l-25 4q1 19 6.5 51t6.5 49q20 139 24 215q-21 6 -39 6l-47 -2l-8 -14v-76q-4 -58 -4 -78v-51q1 -7 1.5 -26t2.5 -31l-6 -37l-37 -8q0 14 -8 14q-3 0 -10 -3t-9 -3q-7 -1 -38.5 -11t-49.5 -10q1 11 15 28t18 24v63q-12 122 -12 182v25l-2 10q-18 -6 -21 -6
l-22 4h-70q-23 0 -33 -6q3 -14 14 -62.5t16.5 -81.5t8.5 -65q2 -14 2 -37q5 -23 27.5 -72.5t23.5 -80.5q-18 7 -48.5 33t-39.5 32l-28 19l-8 -19l-46 25q-1 24 -10 100q-16 151 -41 223q-6 4 -20 4h-13q-16 0 -22 4q-44 -97 -51 -231q-4 -20 -4 -27l2 -32l-2 -35l-39 -2
q-11 0 -17 2q4 0 4 6v12q-37 -5 -113 -37t-124 -34zM1149 1141l18 12q0 8 -10.5 19t-15.5 14q-2 2 -10.5 22t-8.5 23h-12q-49 -5 -61 -10q-9 -18 -9 -27v-14q0 -15 -2 -21q26 -29 35 -59q14 -3 46 -16t40 -13q6 0 6 2q2 2 2 10l-6 23l2 14q-2 0 -8 8.5t-6 12.5zM1020 1083
q16 16 16 25l-37 80q2 6 9.5 15.5t7.5 15.5q0 8 -2 10q-23 4 -60 4h-39q-37 0 -53 2q2 -21 17 -47q-5 -16 -11.5 -52.5t-13.5 -54.5q28 11 72 11q22 0 45.5 -2t36.5 -4zM1343 786q-2 9 -21 25t-22 29v10q0 2 5 27l-23 2q-5 -4 -7 -13t-2 -19t-1 -13q-38 30 -92 30
q-33 0 -45 -6v-18q4 -2 10 -2l26 2q12 0 19 -9l-2 -8q-10 4 -35 4q-38 0 -63 -28l2 -13l6 2q38 15 55 15q10 0 14 -6h-8q-28 0 -53 -52l12 -6q9 14 18.5 20.5t24.5 10.5t21 6q8 0 8 -14q-27 -15 -27 -47q5 -8 15 -8q2 0 10 4q0 10 6 17.5t11.5 10t17.5 6.5t16 5q8 0 16 -6.5
t13 -8.5q14 -14 20 -14q13 0 28 31t27 34zM745 1217v20q-5 -1 -18.5 -1.5t-22 -1.5t-14.5 -5q4 -4 4 -17q0 -14 -16 -33.5t-19 -33.5q12 -50 31 -74q3 -1 12.5 -3.5t14.5 -2.5q3 0 9.5 2t8.5 2q0 1 -3 4.5t-5 8t-2 10.5q0 12 14 49q-24 0 -24 10q0 3 1 6t3 4.5t3.5 2.5
t3.5 2l3 1q16 13 16 50zM674 1235q-8 8 -41 8l-39 -4l-62 -8l-6 -10l39 -56q-26 -43 -26 -55l86 -18l6 71q2 2 11 11.5t12 13.5t9 12.5t8 17t3 17.5zM799 928l-84 -17q2 2 2 7q0 2 -1 4.5t-1 3.5l17 12q18 11 24 23l6 14q-74 -26 -113 -57q0 -7 2 -9q6 -12 6 -20
q0 -9 -10 -15t-23.5 -10.5t-17.5 -7.5q4 -4 11.5 -19t16.5 -24.5t23 -9.5q21 18 52 18h84zM420 1167q0 17 -19 17q-6 0 -11 -4.5t-5 -12.5q0 -16 16 -16q9 0 14 5t5 11zM446 1229h-51q0 -35 4 -35q11 0 19 -7.5t8 -19.5q0 -10 -8 -18t-19 -8t-18.5 9t-7.5 24l-8 -5
q2 -13 4.5 -38.5t5 -39.5t6.5 -18q31 -14 35 -14q6 0 8 4q4 4 6 17t2 24v10q-18 0 -18 6q0 8 11 17t11 14q7 34 10 78zM514 756l-27 22q-8 6 -26 21.5t-26 21t-23 13t-31 10.5q-16 -6 -53.5 -29t-57.5 -29l21 -32q13 1 65 22q3 -11 12 -34.5t11 -39.5l-19 -36l46 30l-7 37
q3 6 9 6l14 -16q6 -9 6 -16q0 -22 -14 -41q4 -4 10 -4l8 2l23 41q-4 5 -11 40q30 -10 39 -24q-2 -5 -5.5 -11t-8 -12.5t-6.5 -9.5l14 -10l33 53q-6 6 -6 8q0 7 10 17zM483 758l-41 12q2 6 9 6t18 -8.5t14 -9.5z" />
    <glyph glyph-name="a_alt" horiz-adv-x="1112" 
d="M244 295q0 -87 64 -132.5t157 -45.5q45 0 92.5 9.5t97 32.5t88.5 57t63.5 87.5t24.5 118.5v61q-104 19 -241 19q-67 0 -125.5 -10.5t-110 -33.5t-81 -64.5t-29.5 -98.5zM84 283q0 75 29.5 134.5t77.5 97t115 62.5t137 35.5t147 10.5q118 0 231 -23q-4 136 -79 207.5
t-205 71.5q-55 0 -107 -8.5t-87 -20.5t-62 -24t-39 -20l-13 -9l-63 112q5 4 15.5 11.5t46.5 26.5t77.5 33t109 26t140.5 12q208 0 320 -124t112 -372v-522h-156v164q-54 -75 -155.5 -129.5t-239.5 -54.5q-153 0 -252.5 80.5t-99.5 222.5z" />
    <glyph glyph-name="one.onum" horiz-adv-x="866" 
d="M463 0v793l-242 -175l-78 113l336 266h142v-997h-158z" />
    <glyph glyph-name="two.onum" horiz-adv-x="1058" 
d="M102 0v115q357 218 500 339.5t143 231.5q0 82 -66.5 135t-180.5 53q-163 0 -314 -120l-71 118q178 146 385 146q189 0 298 -93t109 -239q0 -51 -16 -100.5t-40 -89.5t-66.5 -83t-80 -74t-98 -70.5t-102 -64t-109.5 -63.5h557v-141h-848z" />
    <glyph glyph-name="three.onum" horiz-adv-x="1081" 
d="M76 -86l80 115q134 -125 342 -125q145 0 237 76.5t92 185.5q0 111 -89.5 182.5t-221.5 71.5q-101 0 -201 -53l-59 96l471 393h-625v141h830v-141l-363 -313q189 -6 303.5 -110.5t114.5 -266.5q0 -181 -138.5 -293.5t-350.5 -112.5q-138 0 -246.5 42t-175.5 112z" />
    <glyph glyph-name="four.onum" horiz-adv-x="1067" 
d="M694 -240v281h-628v123l528 878l133 -73l-473 -787h440v330h156v-330h174v-141h-174v-281h-156z" />
    <glyph glyph-name="five.onum" horiz-adv-x="1081" 
d="M98 -102l68 122q60 -53 149.5 -85.5t184.5 -32.5q142 0 233.5 78.5t91.5 187.5q0 107 -89 182.5t-236 75.5q-172 0 -293 -94l-78 61v604h786v-141h-630v-340q109 53 243 53q204 0 331.5 -109t127.5 -288t-135 -295.5t-342 -116.5q-253 0 -412 138z" />
    <glyph glyph-name="six.onum" horiz-adv-x="1132" 
d="M84 444q0 184 127 334l467 570l123 -95l-305 -362q23 14 86 14q196 0 330.5 -130.5t134.5 -323.5q0 -198 -136 -334.5t-346 -136.5q-213 0 -347 133.5t-134 330.5zM246 446q0 -133 90.5 -228t226.5 -95t229 95.5t93 227.5q0 133 -92.5 227.5t-229.5 94.5
q-136 0 -226.5 -94t-90.5 -228z" />
    <glyph glyph-name="seven.onum" horiz-adv-x="1052" 
d="M242 -240l596 1096h-764v141h942v-118l-602 -1119h-172z" />
    <glyph glyph-name="eight.onum" horiz-adv-x="1146" 
d="M94 397q0 122 65.5 216t176.5 141q-67 43 -104 111.5t-37 152.5q0 142 105.5 236t272.5 94t273 -94t106 -236q0 -83 -38 -151.5t-105 -112.5q113 -48 178.5 -141.5t65.5 -215.5q0 -184 -133.5 -300.5t-346.5 -116.5t-346 116.5t-133 300.5zM258 401q0 -117 88 -197.5
t227 -80.5q141 0 228.5 79t87.5 199q0 119 -88.5 200t-227.5 81t-227 -81t-88 -200zM348 1010q0 -84 63 -142.5t162 -58.5t162.5 58.5t63.5 142.5q0 86 -63 143t-163 57t-162.5 -57t-62.5 -143z" />
    <glyph glyph-name="nine.onum" horiz-adv-x="1132" 
d="M420 -145l215 251q-19 -14 -86 -14q-195 0 -329 131t-134 324q0 199 134.5 335t344.5 136q142 0 253 -63t170 -169t59 -235q0 -180 -125 -332l-377 -461zM246 551q0 -134 92 -228t229 -94q136 0 228 94t92 226q0 136 -90.5 230.5t-229.5 94.5t-230 -94.5t-91 -228.5z" />
    <glyph glyph-name="zero.onum" horiz-adv-x="1089" 
d="M92 498q0 226 127.5 373t325.5 147q197 0 323.5 -147t126.5 -373t-126 -372t-324 -146t-325.5 146t-127.5 372zM252 498q0 -165 81.5 -270t211.5 -105q129 0 210 105t81 270q0 161 -81.5 268.5t-209.5 107.5q-129 0 -211 -107t-82 -269z" />
    <glyph glyph-name="zero.pnum" 
d="M250 664q0 -237 91.5 -388t240.5 -151t240 151t91 388t-91 387.5t-240 150.5t-240.5 -150.5t-91.5 -387.5zM82 664q0 197 63.5 353t177.5 243.5t259 87.5t259 -87.5t177 -243.5t63 -353t-63 -353t-177 -243.5t-259 -87.5t-259 87.5t-177.5 243.5t-63.5 353z" />
    <glyph glyph-name="one.pnum" horiz-adv-x="913" 
d="M500 0v1112l-289 -209l-80 115l387 309h141v-1327h-159z" />
    <glyph glyph-name="two.pnum" 
d="M123 0v113q184 151 309.5 265.5t220 219.5t139 190.5t44.5 159.5q0 108 -77.5 180t-197.5 72q-88 0 -168 -40.5t-170 -129.5l-90 107q183 211 436 211q196 0 315.5 -113t119.5 -274q0 -82 -39 -174t-101 -176t-147 -171t-170.5 -158t-177.5 -137h675v-145h-921z" />
    <glyph glyph-name="three.pnum" 
d="M109 139l88 117q56 -66 143.5 -99.5t187.5 -33.5q155 0 250.5 85.5t95.5 217.5q0 117 -91 193.5t-230 76.5q-109 0 -193 -53l-63 107l459 432h-604v145h829v-141l-379 -361q195 -6 318.5 -114.5t123.5 -286.5q0 -205 -142 -324.5t-365 -119.5q-138 0 -249 41.5
t-179 117.5z" />
    <glyph glyph-name="four.pnum" horiz-adv-x="1157" 
d="M729 0v283h-629v120l551 932l135 -78l-495 -831h438v326h160v-326h172v-143h-172v-283h-160z" />
    <glyph glyph-name="five.pnum" 
d="M141 117l66 129q157 -123 340 -123q150 0 237.5 87t87.5 204q0 129 -97 210t-240 81q-150 0 -283 -93l-78 62v653h801v-145h-643v-394q122 54 237 54q202 0 337.5 -117t135.5 -307q0 -187 -134.5 -312.5t-358.5 -125.5q-245 0 -408 137z" />
    <glyph glyph-name="six.pnum" horiz-adv-x="1161" 
d="M100 444q0 182 125 334l467 570l125 -95l-305 -362q33 14 86 14q196 0 329.5 -130.5t133.5 -323.5q0 -130 -59.5 -237t-170.5 -170.5t-251 -63.5q-213 0 -346.5 133.5t-133.5 330.5zM268 449q0 -137 88 -231.5t224 -94.5q135 0 224 94.5t89 231.5q0 132 -90.5 225.5
t-222.5 93.5q-133 0 -222.5 -93.5t-89.5 -225.5z" />
    <glyph glyph-name="seven.pnum" horiz-adv-x="1087" 
d="M231 0l619 1182h-764v145h940v-119l-620 -1208h-175z" />
    <glyph glyph-name="eight.pnum" 
d="M94 397q0 123 67 217t183 140q-67 43 -104 111.5t-37 152.5q0 142 106 236t273 94t273 -94t106 -236q0 -83 -38.5 -151.5t-105.5 -112.5q117 -48 184.5 -141.5t67.5 -215.5q0 -184 -135.5 -300.5t-351.5 -116.5q-217 0 -352.5 116.5t-135.5 300.5zM264 401
q0 -117 88.5 -197.5t229.5 -80.5t229 79t88 199q0 119 -89 200t-228 81q-140 0 -229 -81t-89 -200zM356 1010q0 -84 63.5 -142.5t162.5 -58.5t162 58.5t63 142.5q0 86 -62.5 143t-162.5 57t-163 -57t-63 -143z" />
    <glyph glyph-name="nine.pnum" horiz-adv-x="1161" 
d="M344 74l305 362q-19 -14 -86 -14q-195 0 -329 131t-134 324q0 130 60 237t171 170.5t251 63.5q141 0 251.5 -62.5t169 -168t58.5 -234.5q0 -88 -34 -176t-91 -158l-467 -569zM268 881q0 -133 91 -227.5t223 -94.5q133 0 222 94t89 228q0 135 -87.5 229t-223.5 94
q-135 0 -224.5 -94.5t-89.5 -228.5z" />
    <glyph glyph-name="zero.onumtab" horiz-adv-x="1128" 
d="M113 498q0 226 127 373t325 147q197 0 324 -147t127 -373t-126.5 -372t-324.5 -146t-325 146t-127 372zM272 498q0 -165 81.5 -270t211.5 -105q129 0 210 105t81 270q0 161 -81.5 268.5t-209.5 107.5q-129 0 -211 -107t-82 -269z" />
    <glyph glyph-name="one.onumtab" horiz-adv-x="1128" 
d="M254 0v139h303v649l-260 -186l-74 111l350 284h142v-858h264v-139h-725z" />
    <glyph glyph-name="two.onumtab" horiz-adv-x="1128" 
d="M156 0v115q357 218 500 339.5t143 231.5q0 82 -67 135t-181 53q-162 0 -313 -120l-72 118q178 146 385 146q189 0 298 -93t109 -239q0 -51 -16 -100.5t-40 -89.5t-66.5 -83t-80 -74t-98 -70.5t-102 -64t-109.5 -63.5h558v-141h-848z" />
    <glyph glyph-name="three.onumtab" horiz-adv-x="1128" 
d="M109 -86l79 115q134 -125 342 -125q146 0 238 76.5t92 185.5q0 111 -89.5 182.5t-221.5 71.5q-101 0 -201 -53l-59 96l471 393h-625v141h830v-141l-363 -313q189 -6 303.5 -110.5t114.5 -266.5q0 -181 -139 -293.5t-351 -112.5q-138 0 -246 42t-175 112z" />
    <glyph glyph-name="four.onumtab" horiz-adv-x="1128" 
d="M709 -240v281h-629v123l528 878l133 -73l-473 -787h441v330h155v-330h174v-141h-174v-281h-155z" />
    <glyph glyph-name="five.onumtab" horiz-adv-x="1128" 
d="M141 -102l68 122q60 -53 149.5 -85.5t184.5 -32.5q142 0 233.5 78.5t91.5 187.5q0 107 -89 182.5t-236 75.5q-172 0 -293 -94l-78 61v604h786v-141h-630v-340q109 53 243 53q204 0 331.5 -109t127.5 -288t-135 -295.5t-342 -116.5q-253 0 -412 138z" />
    <glyph glyph-name="six.onumtab" horiz-adv-x="1128" 
d="M82 444q0 184 127 334l467 570l123 -95l-305 -362q23 14 86 14q196 0 330 -130.5t134 -323.5q0 -198 -135.5 -334.5t-345.5 -136.5q-213 0 -347 133.5t-134 330.5zM244 446q0 -133 90.5 -228t226.5 -95t229 95.5t93 227.5q0 133 -92.5 227.5t-229.5 94.5
q-136 0 -226.5 -94t-90.5 -228z" />
    <glyph glyph-name="seven.onumtab" horiz-adv-x="1128" 
d="M272 -240l596 1096h-764v141h943v-118l-603 -1119h-172z" />
    <glyph glyph-name="eight.onumtab" horiz-adv-x="1128" 
d="M84 397q0 122 65.5 216t176.5 141q-67 43 -104.5 111.5t-37.5 152.5q0 142 106 236t273 94t273 -94t106 -236q0 -83 -38 -151.5t-105 -112.5q113 -48 178 -141.5t65 -215.5q0 -184 -133 -300.5t-346 -116.5t-346 116.5t-133 300.5zM248 401q0 -117 88 -197.5t227 -80.5
q141 0 228.5 79t87.5 199q0 119 -88.5 200t-227.5 81t-227 -81t-88 -200zM338 1010q0 -84 63 -142.5t162 -58.5t162 58.5t63 142.5q0 86 -62.5 143t-162.5 57t-162.5 -57t-62.5 -143z" />
    <glyph glyph-name="nine.onumtab" horiz-adv-x="1128" 
d="M418 -145l215 251q-19 -14 -86 -14q-195 0 -329 131t-134 324q0 199 134.5 335t344.5 136q142 0 253 -63t169.5 -169t58.5 -235q0 -181 -124 -332l-377 -461zM244 551q0 -134 92 -228t229 -94q136 0 228 94t92 226q0 136 -90.5 230.5t-229.5 94.5t-230 -94.5t-91 -228.5z
" />
    <glyph glyph-name="aacute_alt" horiz-adv-x="1112" 
d="M244 295q0 -87 64 -132.5t157 -45.5q45 0 92.5 9.5t97 32.5t88.5 57t63.5 87.5t24.5 118.5v61q-104 19 -241 19q-67 0 -125.5 -10.5t-110 -33.5t-81 -64.5t-29.5 -98.5zM84 283q0 75 29.5 134.5t77.5 97t115 62.5t137 35.5t147 10.5q118 0 231 -23q-4 136 -79 207.5
t-205 71.5q-55 0 -107 -8.5t-87 -20.5t-62 -24t-39 -20l-13 -9l-63 112q5 4 15.5 11.5t46.5 26.5t77.5 33t109 26t140.5 12q208 0 320 -124t112 -372v-522h-156v164q-54 -75 -155.5 -129.5t-239.5 -54.5q-153 0 -252.5 80.5t-99.5 222.5zM440 1157l166 273h174l-192 -273
h-148z" />
    <glyph glyph-name="agrave_alt" horiz-adv-x="1112" 
d="M244 295q0 -87 64 -132.5t157 -45.5q45 0 92.5 9.5t97 32.5t88.5 57t63.5 87.5t24.5 118.5v61q-104 19 -241 19q-67 0 -125.5 -10.5t-110 -33.5t-81 -64.5t-29.5 -98.5zM84 283q0 75 29.5 134.5t77.5 97t115 62.5t137 35.5t147 10.5q118 0 231 -23q-4 136 -79 207.5
t-205 71.5q-55 0 -107 -8.5t-87 -20.5t-62 -24t-39 -20l-13 -9l-63 112q5 4 15.5 11.5t46.5 26.5t77.5 33t109 26t140.5 12q208 0 320 -124t112 -372v-522h-156v164q-54 -75 -155.5 -129.5t-239.5 -54.5q-153 0 -252.5 80.5t-99.5 222.5zM494 1157l-193 273h174l166 -273
h-147z" />
    <glyph glyph-name="acircumflex_alt" horiz-adv-x="1112" 
d="M244 295q0 -87 64 -132.5t157 -45.5q45 0 92.5 9.5t97 32.5t88.5 57t63.5 87.5t24.5 118.5v61q-104 19 -241 19q-67 0 -125.5 -10.5t-110 -33.5t-81 -64.5t-29.5 -98.5zM84 283q0 75 29.5 134.5t77.5 97t115 62.5t137 35.5t147 10.5q118 0 231 -23q-4 136 -79 207.5
t-205 71.5q-55 0 -107 -8.5t-87 -20.5t-62 -24t-39 -20l-13 -9l-63 112q5 4 15.5 11.5t46.5 26.5t77.5 33t109 26t140.5 12q208 0 320 -124t112 -372v-522h-156v164q-54 -75 -155.5 -129.5t-239.5 -54.5q-153 0 -252.5 80.5t-99.5 222.5zM301 1145l180 272h174l181 -272
h-134l-135 178l-135 -178h-131z" />
    <glyph glyph-name="adieresis_alt" horiz-adv-x="1112" 
d="M244 295q0 -87 64 -132.5t157 -45.5q45 0 92.5 9.5t97 32.5t88.5 57t63.5 87.5t24.5 118.5v61q-104 19 -241 19q-67 0 -125.5 -10.5t-110 -33.5t-81 -64.5t-29.5 -98.5zM84 283q0 75 29.5 134.5t77.5 97t115 62.5t137 35.5t147 10.5q118 0 231 -23q-4 136 -79 207.5
t-205 71.5q-55 0 -107 -8.5t-87 -20.5t-62 -24t-39 -20l-13 -9l-63 112q5 4 15.5 11.5t46.5 26.5t77.5 33t109 26t140.5 12q208 0 320 -124t112 -372v-522h-156v164q-54 -75 -155.5 -129.5t-239.5 -54.5q-153 0 -252.5 80.5t-99.5 222.5zM319 1260q0 38 27.5 65t65.5 27
q37 0 63.5 -27t26.5 -65q0 -37 -26.5 -64t-63.5 -27q-38 0 -65.5 27t-27.5 64zM641 1260q0 38 28 65t66 27q37 0 63.5 -27t26.5 -65q0 -37 -26.5 -64t-63.5 -27q-38 0 -66 27t-28 64z" />
    <glyph glyph-name="atilde_alt" horiz-adv-x="1112" 
d="M244 295q0 -87 64 -132.5t157 -45.5q45 0 92.5 9.5t97 32.5t88.5 57t63.5 87.5t24.5 118.5v61q-104 19 -241 19q-67 0 -125.5 -10.5t-110 -33.5t-81 -64.5t-29.5 -98.5zM84 283q0 75 29.5 134.5t77.5 97t115 62.5t137 35.5t147 10.5q118 0 231 -23q-4 136 -79 207.5
t-205 71.5q-55 0 -107 -8.5t-87 -20.5t-62 -24t-39 -20l-13 -9l-63 112q5 4 15.5 11.5t46.5 26.5t77.5 33t109 26t140.5 12q208 0 320 -124t112 -372v-522h-156v164q-54 -75 -155.5 -129.5t-239.5 -54.5q-153 0 -252.5 80.5t-99.5 222.5zM281 1153q0 92 40 150.5t105 58.5
q43 0 89.5 -24t84 -48t59.5 -24q31 0 45.5 27.5t14.5 68.5h98q0 -92 -40 -150.5t-105 -58.5q-42 0 -88.5 24t-84.5 48t-59 24q-59 0 -59 -96h-100z" />
    <glyph glyph-name="aring_alt" horiz-adv-x="1112" 
d="M354 1284q0 84 59.5 143.5t143.5 59.5t143.5 -59.5t59.5 -143.5q0 -85 -59 -145t-144 -60t-144 60t-59 145zM446 1284q0 -48 32 -83.5t79 -35.5t79 35.5t32 83.5q0 47 -32.5 82t-78.5 35t-78.5 -35t-32.5 -82zM244 295q0 -87 64 -132.5t157 -45.5q45 0 92.5 9.5t97 32.5
t88.5 57t63.5 87.5t24.5 118.5v61q-104 19 -241 19q-67 0 -125.5 -10.5t-110 -33.5t-81 -64.5t-29.5 -98.5zM84 283q0 75 29.5 134.5t77.5 97t115 62.5t137 35.5t147 10.5q118 0 231 -23q-4 136 -79 207.5t-205 71.5q-55 0 -107 -8.5t-87 -20.5t-62 -24t-39 -20l-13 -9
l-63 112q5 4 15.5 11.5t46.5 26.5t77.5 33t109 26t140.5 12q208 0 320 -124t112 -372v-522h-156v164q-54 -75 -155.5 -129.5t-239.5 -54.5q-153 0 -252.5 80.5t-99.5 222.5z" />
    <glyph glyph-name="amacron_alt" horiz-adv-x="1112" 
d="M244 295q0 -87 64 -132.5t157 -45.5q45 0 92.5 9.5t97 32.5t88.5 57t63.5 87.5t24.5 118.5v61q-104 19 -241 19q-67 0 -125.5 -10.5t-110 -33.5t-81 -64.5t-29.5 -98.5zM84 283q0 75 29.5 134.5t77.5 97t115 62.5t137 35.5t147 10.5q118 0 231 -23q-4 136 -79 207.5
t-205 71.5q-55 0 -107 -8.5t-87 -20.5t-62 -24t-39 -20l-13 -9l-63 112q5 4 15.5 11.5t46.5 26.5t77.5 33t109 26t140.5 12q208 0 320 -124t112 -372v-522h-156v164q-54 -75 -155.5 -129.5t-239.5 -54.5q-153 0 -252.5 80.5t-99.5 222.5zM348 1167v121h410v-121h-410z" />
    <glyph glyph-name="abreve_alt" horiz-adv-x="1112" 
d="M244 295q0 -87 64 -132.5t157 -45.5q45 0 92.5 9.5t97 32.5t88.5 57t63.5 87.5t24.5 118.5v61q-104 19 -241 19q-67 0 -125.5 -10.5t-110 -33.5t-81 -64.5t-29.5 -98.5zM84 283q0 75 29.5 134.5t77.5 97t115 62.5t137 35.5t147 10.5q118 0 231 -23q-4 136 -79 207.5
t-205 71.5q-55 0 -107 -8.5t-87 -20.5t-62 -24t-39 -20l-13 -9l-63 112q5 4 15.5 11.5t46.5 26.5t77.5 33t109 26t140.5 12q208 0 320 -124t112 -372v-522h-156v164q-54 -75 -155.5 -129.5t-239.5 -54.5q-153 0 -252.5 80.5t-99.5 222.5zM557 1135q-96 0 -154.5 63.5
t-58.5 155.5h94q6 -51 39.5 -79t79.5 -28t79.5 28t37.5 79h96q0 -92 -58.5 -155.5t-154.5 -63.5z" />
    <glyph glyph-name="aringacute_alt" horiz-adv-x="1112" 
d="M84 283q0 75 29.5 134.5t77.5 97t115 62.5t137 35.5t147 10.5q118 0 231 -23q-4 136 -79 207.5t-205 71.5q-55 0 -107 -8.5t-87 -20.5t-62 -24t-39 -20l-13 -9l-63 112q5 4 15.5 11.5t46.5 26.5t77.5 33t109 26t140.5 12q208 0 320 -124t112 -372v-522h-156v164
q-54 -75 -155.5 -129.5t-239.5 -54.5q-153 0 -252.5 80.5t-99.5 222.5zM244 295q0 -87 64 -132.5t157 -45.5q45 0 92.5 9.5t97 32.5t88.5 57t63.5 87.5t24.5 118.5v61q-104 19 -241 19q-67 0 -125.5 -10.5t-110 -33.5t-81 -64.5t-29.5 -98.5zM346 1300q0 56 29.5 104
t77.5 75l145 258h162l-158 -242q65 -17 107.5 -72t42.5 -123q0 -85 -59 -144.5t-144 -59.5t-144 59.5t-59 144.5zM438 1300q0 -48 32 -83t79 -35t78.5 35t31.5 83q0 47 -32 82t-78 35t-78.5 -35t-32.5 -82z" />
    <glyph glyph-name="aogonek_alt" horiz-adv-x="1112" 
d="M713 -262q0 72 31.5 145t86.5 127v154q-54 -75 -155.5 -129.5t-239.5 -54.5q-153 0 -252.5 80.5t-99.5 222.5q0 75 29.5 134.5t77.5 97t115 62.5t137 35.5t147 10.5q118 0 231 -23q-4 136 -79 207.5t-205 71.5q-55 0 -107 -8.5t-87 -20.5t-62 -24t-39 -20l-13 -9l-63 112
q5 4 15.5 11.5t46.5 26.5t77.5 33t109 26t140.5 12q208 0 320 -124t112 -372v-522h-61q-42 -39 -70.5 -102t-28.5 -119q0 -55 32.5 -87t82.5 -32q34 0 82 23l33 -82q-67 -52 -152 -52q-77 0 -134.5 50.5t-57.5 138.5zM244 295q0 -87 64 -132.5t157 -45.5q45 0 92.5 9.5
t97 32.5t88.5 57t63.5 87.5t24.5 118.5v61q-104 19 -241 19q-67 0 -125.5 -10.5t-110 -33.5t-81 -64.5t-29.5 -98.5z" />
    <glyph glyph-name="questiondown.cap" horiz-adv-x="976" 
d="M430 1235q0 47 34 80t81 33t79.5 -33t32.5 -80q0 -46 -33 -79.5t-79 -33.5q-47 0 -81 33.5t-34 79.5zM106 399q0 156 100.5 270t252.5 134l16 178h139l15 -283q-93 0 -165 -26.5t-113 -71t-61 -96t-20 -107.5q0 -107 80 -185.5t193 -78.5q88 0 158.5 48.5t103.5 129.5
l133 -65q-48 -124 -155 -195t-251 -71q-189 0 -307.5 122t-118.5 297z" />
    <glyph glyph-name="exclamdown.cap" horiz-adv-x="462" 
d="M145 0l19 979h137l18 -979h-174zM119 1235q0 46 33 79.5t79 33.5q47 0 80 -33.5t33 -79.5q0 -47 -33 -80t-80 -33q-46 0 -79 33t-33 80z" />
    <glyph glyph-name="hyphen.cap" horiz-adv-x="899" 
d="M61 571v136h777v-136h-777z" />
    <glyph glyph-name="endash.cap" horiz-adv-x="1218" 
d="M41 571v140h1137v-140h-1137z" />
    <glyph glyph-name="emdash.cap" horiz-adv-x="1449" 
d="M41 571v140h1368v-140h-1368z" />
    <glyph glyph-name="periodcentered.cap" horiz-adv-x="333" 
d="M55 737q0 47 33.5 81t79.5 34t78.5 -34t32.5 -81q0 -46 -32.5 -78t-78.5 -32q-47 0 -80 32t-33 78z" />
    <glyph glyph-name="parenleft.cap" horiz-adv-x="618" 
d="M119 645q0 255 91.5 458.5t244.5 352.5l94 -102q-127 -139 -197.5 -323t-70.5 -386t70.5 -385.5t197.5 -322.5l-94 -103q-153 149 -244.5 352.5t-91.5 458.5z" />
    <glyph glyph-name="parenright.cap" horiz-adv-x="618" 
d="M164 -154l-94 103q127 138 197.5 321.5t70.5 386.5t-70.5 387t-197.5 322l94 102q153 -149 244.5 -352.5t91.5 -458.5t-91.5 -458.5t-244.5 -352.5z" />
    <glyph glyph-name="bracketleft.cap" horiz-adv-x="573" 
d="M119 -139v1622h391v-119h-231v-1387h231v-116h-391z" />
    <glyph glyph-name="bracketright.cap" horiz-adv-x="573" 
d="M63 -141v118h234v1387h-234v119h392v-1624h-392z" />
    <glyph glyph-name="braceleft.cap" horiz-adv-x="790" 
d="M109 602v127h30q63 0 101.5 29t38.5 92v174q0 469 362 469h86v-131q-162 0 -226.5 -76.5t-64.5 -259.5v-162q0 -30 -5.5 -58t-19 -59.5t-43.5 -54t-73 -28.5q141 -36 141 -199v-160q0 -183 64.5 -259.5t226.5 -76.5v-131h-86q-362 0 -362 469v174q0 62 -39 91.5
t-101 29.5h-30z" />
    <glyph glyph-name="braceright.cap" horiz-adv-x="790" 
d="M63 -162v131q162 0 225.5 76.5t63.5 259.5v160q0 162 144 199q-56 8 -90.5 45.5t-44 75.5t-9.5 79v162q0 183 -63.5 259.5t-225.5 76.5v131h87q362 0 362 -469v-174q0 -63 38.5 -92t100.5 -29h31v-127h-31q-62 0 -100.5 -29.5t-38.5 -91.5v-174q0 -469 -362 -469h-87z
" />
    <glyph glyph-name="zero.slash" 
d="M82 664q0 197 63.5 353t177.5 243.5t259 87.5t259 -87.5t177 -243.5t63 -353t-63 -353t-177 -243.5t-259 -87.5t-259 87.5t-177.5 243.5t-63.5 353zM846 991l-467 -768q81 -98 203 -98q149 0 240 151t91 388q0 187 -67 327zM250 664q0 -189 65 -322l467 766
q-84 94 -200 94q-149 0 -240.5 -150.5t-91.5 -387.5z" />
    <glyph glyph-name="a.sups" horiz-adv-x="753" 
d="M184 874q0 -48 37 -74t92 -26q61 0 107 17t68.5 42.5t33 48t10.5 40.5v61q-46 10 -135 10t-151 -28.5t-62 -90.5zM61 870q0 61 29 106.5t78.5 70.5t106.5 37t122 12q67 0 127 -13q-7 74 -51.5 115t-110.5 41q-55 0 -105.5 -14.5t-73.5 -29.5l-23 -15l-54 94q4 3 11.5 8
t33.5 18.5t54.5 23.5t74 18t93.5 8q138 0 212 -81.5t74 -244.5v-346h-127v78q-90 -90 -237 -90q-102 0 -168 54.5t-66 149.5z" />
    <glyph glyph-name="b.sups" horiz-adv-x="823" 
d="M106 678v878h127v-311q39 48 95.5 75.5t120.5 27.5q134 0 225.5 -100t91.5 -242t-91.5 -242t-225.5 -100q-64 0 -120.5 27t-95.5 75v-88h-127zM233 1006q0 -93 57.5 -156.5t143.5 -63.5t143.5 63.5t57.5 156.5q0 92 -57.5 154.5t-143.5 62.5t-143.5 -62.5t-57.5 -154.5z
" />
    <glyph glyph-name="c.sups" horiz-adv-x="698" 
d="M59 1006q0 141 102 241.5t245 100.5q134 0 243 -101l-80 -90q-31 30 -75 48t-86 18q-92 0 -156 -62t-64 -155q0 -94 65 -156t157 -62q104 0 180 76l76 -92q-118 -108 -260 -108q-143 0 -245 100.5t-102 241.5z" />
    <glyph glyph-name="d.sups" horiz-adv-x="821" 
d="M59 1006q0 144 91 243t227 99q133 0 213 -103v311h127v-878h-127v88q-86 -102 -213 -102q-135 0 -226.5 100t-91.5 242zM186 1006q0 -91 58.5 -155.5t144.5 -64.5q85 0 143 62.5t58 157.5q0 92 -57.5 154.5t-143.5 62.5t-144.5 -62.5t-58.5 -154.5z" />
    <glyph glyph-name="e.sups" horiz-adv-x="765" 
d="M193 1061h385q-14 75 -68 122.5t-127 47.5q-69 0 -122 -47.5t-68 -122.5zM59 1006q0 141 96 241.5t232 100.5q132 0 226 -100t94 -238l-7 -54h-507q17 -79 76 -127.5t137 -48.5q109 0 194 78l72 -90q-120 -104 -266 -104q-144 0 -245.5 96.5t-101.5 245.5z" />
    <glyph glyph-name="f.sups" horiz-adv-x="419" 
d="M96 496v723h-82v112h84v29q0 63 18 108.5t47.5 68.5t60.5 33.5t63 10.5q49 0 94.5 -15.5t66.5 -31.5l21 -16l-66 -82q-55 32 -104 32q-76 0 -76 -112v-25h201v-112h-201v-723h-127z" />
    <glyph glyph-name="g.sups" horiz-adv-x="821" 
d="M111 565l67 86q83 -86 199 -86q24 0 49.5 5t56 20t54 37.5t39.5 61.5t16 89q-82 -94 -217 -94q-137 0 -228.5 92t-91.5 230t91.5 228.5t228.5 90.5q135 0 217 -98v84h127v-506q0 -80 -22 -142.5t-56 -100t-80.5 -61.5t-90 -33t-89.5 -9q-156 0 -270 106zM182 999
q0 -92 56.5 -148t146.5 -56q87 0 144 56.5t57 147.5t-57 149t-144 58q-90 0 -146.5 -57.5t-56.5 -149.5z" />
    <glyph glyph-name="h.sups" horiz-adv-x="774" 
d="M106 678v878h127v-292q73 84 201 84q121 0 183.5 -72t62.5 -199v-399h-127v383q0 81 -35.5 122.5t-114.5 41.5q-71 0 -120.5 -50t-49.5 -128v-369h-127z" />
    <glyph glyph-name="i.sups" horiz-adv-x="329" 
d="M102 678v659h127v-659h-127zM86 1499q0 34 24 58t58 24q31 0 54.5 -24.5t23.5 -57.5q0 -32 -23.5 -56t-54.5 -24q-34 0 -58 24t-24 56z" />
    <glyph glyph-name="j.sups" horiz-adv-x="319" 
d="M14 563q34 20 56 57.5t22 84.5v628h127v-616q0 -96 -43.5 -158t-109.5 -92zM76 1499q0 33 23.5 56.5t56.5 23.5q34 0 58 -23t24 -57t-24 -57t-58 -23q-33 0 -56.5 23.5t-23.5 56.5z" />
    <glyph glyph-name="k.sups" horiz-adv-x="710" 
d="M104 678v878h127v-548l293 327h160l-266 -293l307 -364h-156l-229 278l-109 -122v-156h-127z" />
    <glyph glyph-name="l.sups" horiz-adv-x="339" 
d="M106 678v878h127v-878h-127z" />
    <glyph glyph-name="m.sups" horiz-adv-x="1179" 
d="M106 678v657h127v-71q71 86 185 86q146 0 207 -109q37 54 94 81.5t121 27.5q121 0 183 -71.5t62 -201.5v-399h-127v383q0 79 -30.5 121.5t-108.5 42.5q-70 0 -116 -46.5t-46 -119.5v-381h-127v383q0 78 -31 121t-106 43q-68 0 -114 -50.5t-46 -123.5v-373h-127z" />
    <glyph glyph-name="o.sups" horiz-adv-x="808" 
d="M59 1006q0 141 101 241.5t243 100.5q144 0 245.5 -100.5t101.5 -241.5t-101.5 -241.5t-245.5 -100.5q-142 0 -243 100.5t-101 241.5zM186 1006q0 -90 64 -154t153 -64q91 0 154.5 63.5t63.5 154.5t-63.5 154t-154.5 63q-90 0 -153.5 -63.5t-63.5 -153.5z" />
    <glyph glyph-name="p.sups" horiz-adv-x="823" 
d="M104 502v835h127v-90q39 48 95 75.5t120 27.5q134 0 226 -100t92 -242t-92 -242t-226 -100q-132 0 -215 102v-266h-127zM231 1008q0 -93 57.5 -156.5t143.5 -63.5t143.5 63.5t57.5 156.5t-57.5 156t-143.5 63t-143.5 -63t-57.5 -156z" />
    <glyph glyph-name="q.sups" horiz-adv-x="821" 
d="M59 1006q0 144 91.5 244t226.5 100q131 0 213 -105v90h127v-835h-127v266q-86 -102 -213 -102q-135 0 -226.5 100t-91.5 242zM186 1006q0 -91 58.5 -155.5t144.5 -64.5q85 0 143 64t58 156q0 95 -58 157t-143 62q-86 0 -144.5 -62.5t-58.5 -156.5z" />
    <glyph glyph-name="r.sups" horiz-adv-x="495" 
d="M106 678v657h127v-92q76 107 242 107v-138q-68 0 -120 -22t-87 -78t-35 -141v-293h-127z" />
    <glyph glyph-name="s.sups" horiz-adv-x="655" 
d="M63 766l62 96q78 -82 199 -82q62 0 102.5 24t40.5 64q0 24 -23.5 42.5t-50 27.5t-71.5 20q-56 13 -89 24.5t-70.5 33.5t-55 56.5t-17.5 82.5q0 89 70.5 141t171.5 52q115 0 231 -76l-59 -96q-83 55 -170 55q-49 0 -80 -21t-31 -55q0 -17 10.5 -30t31.5 -22.5t40 -15.5
t47 -12q53 -12 90 -25t76 -36t59.5 -59.5t20.5 -84.5q0 -100 -80 -153t-192 -53q-86 0 -153.5 28.5t-109.5 73.5z" />
    <glyph glyph-name="t.sups" horiz-adv-x="516" 
d="M129 895v330h-82v110h82v140l127 18v-158h217v-110h-217v-336q0 -57 21.5 -83t54.5 -26q24 0 50.5 10t41.5 20l14 11l51 -96q-81 -61 -167 -61q-89 0 -141 55.5t-52 175.5z" />
    <glyph glyph-name="u.sups" horiz-adv-x="765" 
d="M344 664q-122 0 -186 77.5t-64 194.5v399h127v-383q0 -81 35.5 -122.5t114.5 -41.5q68 0 114.5 48.5t46.5 130.5v368h127v-657h-127v67q-70 -81 -188 -81z" />
    <glyph glyph-name="v.sups" horiz-adv-x="679" 
d="M287 670l-293 659h131l180 -407l35 -101q14 54 35 101l180 407h131l-293 -659h-106z" />
    <glyph glyph-name="w.sups" horiz-adv-x="937" 
d="M219 670l-225 659h125l145 -426l8 -45q5 29 9 45l131 426h116l129 -426q3 -12 5.5 -23.5t3.5 -16t2 -5.5q0 21 8 45l145 426h125l-227 -659h-107l-127 411l-16 82q0 -28 -14 -82l-127 -411h-109z" />
    <glyph glyph-name="x.sups" horiz-adv-x="632" 
d="M-6 678l250 332l-250 323h141l135 -174l47 -67q2 2 8.5 12t17 25.5t17.5 25.5l138 178h141l-248 -325l248 -330h-141l-133 172q-33 41 -50 74q-4 -16 -47 -72l-131 -174h-143z" />
    <glyph glyph-name="y.sups" horiz-adv-x="714" 
d="M133 473v121q62 0 96.5 21t59.5 83l10 25l-299 610h137l195 -403l30 -82q15 45 33 86l178 399h134l-312 -690q-26 -57 -58 -93.5t-69.5 -52t-66 -20t-68.5 -4.5z" />
    <glyph glyph-name="z.sups" horiz-adv-x="610" 
d="M33 678v96l305 373l65 70h-360v116h524v-94l-307 -371l-65 -73h383v-117h-545z" />
    <glyph glyph-name="commaaccentcomb" horiz-adv-x="696" 
d="M223 -481q51 52 88 127.5t37 150.5q0 36 -18 72l119 41q22 -50 22 -94q0 -101 -46 -178.5t-101 -118.5h-101z" />
    <glyph glyph-name="zero.dnom" horiz-adv-x="901" 
d="M225 469q0 -160 62.5 -260t163.5 -100q100 0 162.5 100t62.5 260q0 157 -63 258.5t-162 101.5q-101 0 -163.5 -101t-62.5 -259zM82 469q0 212 104 347.5t265 135.5q160 0 263 -135.5t103 -347.5t-103 -347.5t-263 -135.5q-161 0 -265 135.5t-104 347.5z" />
    <glyph glyph-name="one.dnom" horiz-adv-x="655" 
d="M330 0v760l-215 -158l-60 94l305 244h103v-940h-133z" />
    <glyph glyph-name="two.dnom" horiz-adv-x="792" 
d="M63 0v96q66 58 101 89t87.5 78.5t79.5 74t65 65t56.5 62t41.5 54.5t33 54t17 48t7 49q0 70 -46.5 114.5t-131.5 44.5q-133 0 -228 -114l-73 92q61 68 133 106.5t178 38.5q143 0 226 -76.5t83 -197.5q0 -70 -30.5 -139.5t-92.5 -140.5t-131 -133.5t-170 -141.5h445v-123
h-650z" />
    <glyph glyph-name="three.dnom" horiz-adv-x="821" 
d="M61 94l70 94q89 -84 234 -84q108 0 167.5 60t59.5 141q0 75 -54.5 128.5t-158.5 53.5q-72 0 -137 -41l-52 80l314 287h-410v121h592v-107l-256 -241h8q125 0 211 -84t86 -203q0 -130 -99.5 -223.5t-266.5 -93.5q-85 0 -168 27t-140 85z" />
    <glyph glyph-name="four.dnom" horiz-adv-x="843" 
d="M514 0v199h-440v96l387 659l112 -55l-344 -577h285v213h135v-213h111v-123h-111v-199h-135z" />
    <glyph glyph-name="five.dnom" horiz-adv-x="808" 
d="M82 74l57 104q89 -76 232 -76q103 0 163 56t60 133q0 90 -62 140t-155 50q-106 0 -197 -63l-67 51v467h569v-123h-442v-244q71 29 157 29q141 0 236.5 -82t95.5 -225q0 -136 -95.5 -226t-260.5 -90q-72 0 -150.5 24t-140.5 75z" />
    <glyph glyph-name="six.dnom" horiz-adv-x="868" 
d="M92 322q0 111 90 227l338 420l98 -82l-206 -246q27 4 37 4q139 0 233 -94.5t94 -228.5q0 -142 -96.5 -240t-245.5 -98q-150 0 -246 98t-96 240zM229 317q0 -88 59 -148t144 -60q88 0 147.5 60t59.5 148q0 91 -59.5 152t-147.5 61q-85 0 -144 -61.5t-59 -151.5z" />
    <glyph glyph-name="seven.dnom" horiz-adv-x="739" 
d="M121 0l422 817h-498v123h660v-96l-437 -844h-147z" />
    <glyph glyph-name="eight.dnom" horiz-adv-x="868" 
d="M88 287q0 85 43.5 154.5t118.5 101.5q-92 72 -92 174q0 103 77 168t199 65q120 0 197.5 -65.5t77.5 -167.5q0 -101 -93 -174q75 -32 118.5 -101.5t43.5 -154.5q0 -134 -95 -218.5t-249 -84.5q-155 0 -250.5 84.5t-95.5 218.5zM231 293q0 -81 55 -131.5t148 -50.5
q91 0 147 51t56 131q0 79 -53 129.5t-150 50.5q-99 0 -151 -50.5t-52 -129.5zM287 709q0 -54 39 -89.5t108 -35.5q68 0 107 36t39 89q0 55 -40.5 90t-105.5 35q-66 0 -106.5 -34.5t-40.5 -90.5z" />
    <glyph glyph-name="nine.dnom" horiz-adv-x="868" 
d="M260 59l197 234q-19 -4 -35 -4q-140 0 -235 94t-95 229q0 141 97 238.5t247 97.5q148 0 244 -97.5t96 -238.5q0 -111 -90 -227l-328 -408zM229 614q0 -89 59.5 -150t147.5 -61q85 0 144 61t59 150q0 88 -59 149.5t-144 61.5q-87 0 -147 -61.5t-60 -149.5z" />
    <glyph glyph-name="at.cap" horiz-adv-x="1896" 
d="M143 592q0 218 109 404t296 294.5t406 108.5q159 0 304 -56.5t251 -153.5t169 -234t63 -291q0 -203 -91 -329t-227 -126q-163 0 -211 143q-47 -80 -127.5 -122t-185.5 -42q-146 0 -256.5 119t-110.5 283t109.5 282.5t257.5 118.5q185 0 293 -141v121h125v-473
q0 -70 27 -121t88 -51q79 0 133.5 93t54.5 245q0 174 -86 317t-239 225t-341 82q-139 0 -265.5 -55t-218 -148t-146 -222t-54.5 -271q0 -192 92.5 -348.5t248.5 -243t341 -86.5q184 0 328 72l49 -99q-158 -82 -379 -82t-405.5 100t-293 281t-108.5 406zM662 590
q0 -117 78.5 -201t191.5 -84t186.5 81.5t73.5 203.5q0 128 -72.5 205t-187.5 77q-114 0 -192 -82.5t-78 -199.5z" />
    <glyph glyph-name="zero.numerator" horiz-adv-x="901" 
d="M225 864q0 -160 62.5 -260t163.5 -100q100 0 162.5 100t62.5 260q0 158 -63 259.5t-162 101.5q-101 0 -163.5 -101.5t-62.5 -259.5zM82 864q0 212 104 348t265 136q160 0 263 -136t103 -348t-103 -347.5t-263 -135.5q-161 0 -265 135.5t-104 347.5z" />
    <glyph glyph-name="one.numerator" horiz-adv-x="655" 
d="M330 391v760l-215 -158l-60 94l305 244h103v-940h-133z" />
    <glyph glyph-name="two.numerator" horiz-adv-x="792" 
d="M63 391v96q66 58 101 89t87.5 78.5t79.5 74t65 65t56.5 62t41.5 54.5t33 54t17 48t7 49q0 70 -46.5 115t-131.5 45q-132 0 -228 -115l-73 92q61 68 133 106.5t178 38.5q143 0 226 -76.5t83 -197.5q0 -70 -30.5 -139.5t-92.5 -140.5t-131 -133.5t-170 -141.5h445v-123
h-650z" />
    <glyph glyph-name="three.numerator" horiz-adv-x="821" 
d="M61 492l70 94q89 -84 234 -84q108 0 167.5 59.5t59.5 140.5q0 76 -54.5 129.5t-158.5 53.5q-72 0 -137 -41l-52 80l314 286h-410v121h592v-106l-256 -242h8q125 0 211 -84t86 -203q0 -130 -99.5 -223.5t-266.5 -93.5q-84 0 -167.5 27t-140.5 86z" />
    <glyph glyph-name="four.numerator" horiz-adv-x="831" 
d="M514 393v199h-440v96l387 660l112 -56l-344 -577h285v213h135v-213h111v-123h-111v-199h-135z" />
    <glyph glyph-name="five.numerator" horiz-adv-x="808" 
d="M82 465l57 104q88 -75 232 -75q104 0 163.5 55.5t59.5 132.5q0 90 -62 140t-155 50q-106 0 -197 -63l-67 51v467h569v-123h-442v-243q69 28 157 28q141 0 236.5 -82t95.5 -225q0 -135 -95.5 -225t-260.5 -90q-72 0 -150.5 23.5t-140.5 74.5z" />
    <glyph glyph-name="six.numerator" horiz-adv-x="868" 
d="M92 717q0 111 90 227l338 420l98 -82l-206 -246q27 4 37 4q139 0 233 -94t94 -229q0 -142 -96.5 -240t-245.5 -98q-150 0 -246 98t-96 240zM229 713q0 -88 59 -148.5t144 -60.5q88 0 147.5 60.5t59.5 148.5q0 91 -59.5 152t-147.5 61q-85 0 -144 -61.5t-59 -151.5z" />
    <glyph glyph-name="seven.numerator" horiz-adv-x="739" 
d="M121 391l422 817h-498v123h660v-96l-437 -844h-147z" />
    <glyph glyph-name="eight.numerator" horiz-adv-x="868" 
d="M88 682q0 85 43.5 154.5t118.5 101.5q-92 72 -92 174q0 103 77.5 168.5t198.5 65.5q120 0 197.5 -65.5t77.5 -168.5q0 -101 -93 -174q75 -32 118.5 -101.5t43.5 -154.5q0 -134 -95 -218.5t-249 -84.5q-155 0 -250.5 84.5t-95.5 218.5zM231 688q0 -81 55 -131.5t148 -50.5
q91 0 147 51t56 131q0 79 -53 129.5t-150 50.5q-99 0 -151 -50.5t-52 -129.5zM287 1104q0 -54 39 -89.5t108 -35.5q68 0 107 36t39 89q0 55 -40.5 90t-105.5 35q-66 0 -106.5 -34.5t-40.5 -90.5z" />
    <glyph glyph-name="nine.numerator" horiz-adv-x="868" 
d="M260 455l197 233q-19 -4 -35 -4q-140 0 -235 94.5t-95 229.5q0 140 97 237.5t247 97.5q148 0 244 -97.5t96 -237.5q0 -112 -90 -228l-328 -407zM229 1010q0 -89 59.5 -150t147.5 -61q85 0 144 61t59 150q0 88 -59 149.5t-144 61.5q-87 0 -147 -61.5t-60 -149.5z" />
    <glyph glyph-name="comma.dnom" horiz-adv-x="331" 
d="M23 -162l69 350h144l-121 -350h-92z" />
    <glyph glyph-name="period.dnom" horiz-adv-x="331" 
d="M57 80q0 41 30.5 71.5t70.5 30.5q42 0 72 -30t30 -72q0 -41 -29.5 -70.5t-72.5 -29.5q-40 0 -70.5 29.5t-30.5 70.5z" />
    <glyph glyph-name="period.numerator" horiz-adv-x="331" 
d="M57 481q0 42 30.5 72.5t70.5 30.5q43 0 72.5 -30t29.5 -73q0 -40 -30 -70t-72 -30q-40 0 -70.5 30t-30.5 70z" />
    <glyph glyph-name="comma.numerator" horiz-adv-x="331" 
d="M23 240l69 350h144l-121 -350h-92z" />
    <glyph glyph-name="A.small" horiz-adv-x="1245" 
d="M12 0l541 1159h141l539 -1159h-166l-94 199h-701l-92 -199h-168zM334 332h579l-190 401q-23 49 -47.5 108t-38 93t-14.5 35q-46 -125 -97 -234z" />
    <glyph glyph-name="B.small" horiz-adv-x="1191" 
d="M133 0v1155h537q146 0 237.5 -75.5t91.5 -209.5q0 -69 -37.5 -128t-89.5 -80q103 -19 171.5 -105t68.5 -203q0 -164 -119.5 -259t-316.5 -95h-543zM297 143h367q128 0 202 56t74 153q0 101 -65.5 159t-182.5 58h-395v-426zM297 713h375q73 0 115 40t42 105q0 68 -45 111
t-127 43h-360v-299z" />
    <glyph glyph-name="C.small" horiz-adv-x="1148" 
d="M80 575q0 122 46.5 232t126 189.5t191.5 126t238 46.5q232 0 397 -143l-98 -111q-125 107 -289 107q-188 0 -315 -131t-127 -316t125.5 -315.5t308.5 -130.5q192 0 322 133l102 -112q-175 -170 -424 -170q-169 0 -308 80t-217.5 216.5t-78.5 298.5z" />
    <glyph glyph-name="D.small" horiz-adv-x="1263" 
d="M297 143h270q199 0 322 122.5t123 312.5t-123 312t-322 122h-270v-869zM133 0v1155h442q136 0 251 -46t193 -124.5t121.5 -183.5t43.5 -223t-43.5 -223.5t-121.5 -184t-193 -124.5t-251 -46h-442z" />
    <glyph glyph-name="E.small" horiz-adv-x="1116" 
d="M133 0v1155h897v-143h-733v-330h694v-141h-694v-398h758v-143h-922z" />
    <glyph glyph-name="F.small" horiz-adv-x="1003" 
d="M133 0v1155h844v-143h-680v-330h573v-141h-573v-541h-164z" />
    <glyph glyph-name="G.small" horiz-adv-x="1275" 
d="M80 575q0 121 46.5 231t126 189.5t192 126.5t239.5 47q228 0 399 -145l-100 -113q-123 111 -299 111q-120 0 -220.5 -60.5t-157 -163t-56.5 -223.5q0 -185 125.5 -315.5t308.5 -130.5q102 0 190.5 45t149.5 125v225h-240v140h398v-426q-79 -120 -211 -189t-287 -69
q-127 0 -239.5 47t-192 126.5t-126 189.5t-46.5 232z" />
    <glyph glyph-name="H.small" horiz-adv-x="1226" 
d="M133 0v1155h164v-471h633v471h164v-1155h-164v541h-633v-541h-164z" />
    <glyph glyph-name="I.small" horiz-adv-x="430" 
d="M133 0v1155h164v-1155h-164z" />
    <glyph glyph-name="J.small" horiz-adv-x="966" 
d="M43 195l123 90q76 -154 242 -154q128 0 204 82.5t76 241.5v700h164v-688q0 -128 -35 -224t-97 -152t-140 -83.5t-172 -27.5q-120 0 -214.5 54.5t-150.5 160.5z" />
    <glyph glyph-name="K.small" horiz-adv-x="1159" 
d="M133 0v1155h164v-723q68 99 115 154l491 569h195l-449 -534l492 -621h-195l-399 506l-250 -287v-219h-164z" />
    <glyph glyph-name="L.small" horiz-adv-x="1075" 
d="M133 0v1155h164v-1012h717v-143h-881z" />
    <glyph glyph-name="M.small" horiz-adv-x="1460" 
d="M133 0v1155h135l463 -631l461 631h135v-1155h-164v877q-5 -9 -35 -54.5t-76 -112.5t-79 -112l-242 -330l-246 332q-52 69 -117.5 165t-70.5 109v-874h-164z" />
    <glyph glyph-name="N.small" horiz-adv-x="1257" 
d="M133 0v1155h162l508 -663q35 -45 74.5 -104.5t61.5 -96.5l22 -37v901h163v-1155h-166l-489 639q-41 54 -84 117.5t-65 99.5l-23 37v-893h-164z" />
    <glyph glyph-name="O.small" horiz-adv-x="1366" 
d="M80 575q0 163 78.5 299t217.5 215.5t308 79.5q126 0 238 -46.5t191.5 -126t126 -189.5t46.5 -232q0 -162 -78.5 -298.5t-217 -216.5t-306.5 -80q-169 0 -308 80t-217.5 216.5t-78.5 298.5zM250 575q0 -185 125.5 -315.5t308.5 -130.5q182 0 307 131t125 315
q0 121 -56.5 223.5t-156 163t-219.5 60.5t-220.5 -60.5t-157 -163t-56.5 -223.5z" />
    <glyph glyph-name="P.small" horiz-adv-x="1191" 
d="M133 0v1155h477q228 0 364 -125t136 -311t-136 -310t-364 -124h-313v-285h-164zM625 1012h-328v-586h326q139 0 227 84.5t88 208.5t-88 208.5t-225 84.5z" />
    <glyph glyph-name="Q.small" horiz-adv-x="1366" 
d="M80 575q0 163 78.5 299t217.5 215.5t308 79.5q126 0 238 -46.5t191.5 -126t126 -189.5t46.5 -232q0 -211 -133 -376l107 -107l-101 -102l-112 110q-155 -120 -363 -120q-169 0 -308 80t-217.5 216.5t-78.5 298.5zM250 575q0 -185 125.5 -315.5t308.5 -130.5q138 0 248 86
l-146 150l101 102l147 -148q82 116 82 256q0 121 -56.5 223.5t-156 163t-219.5 60.5t-220.5 -60.5t-157 -163t-56.5 -223.5z" />
    <glyph glyph-name="R.small" horiz-adv-x="1193" 
d="M133 0v1155h477q228 0 364 -125t136 -311q0 -126 -67 -230t-187 -157l266 -332h-204l-222 289q-49 -4 -202 -4h-197v-285h-164zM297 426h328q137 0 225 85t88 208q0 124 -87 208.5t-224 84.5h-330v-586z" />
    <glyph glyph-name="S.small" horiz-adv-x="1071" 
d="M78 147l80 125q155 -145 368 -145q132 0 214.5 56.5t82.5 140.5q0 49 -30 85t-79 56.5t-112 40t-128 34.5t-128 41t-112 58t-79 86.5t-30 126.5q0 99 60.5 173t151 109t195.5 35q222 0 400 -127l-72 -124q-144 106 -330 106q-89 0 -163 -45.5t-74 -122.5q0 -46 30 -80
t79 -53.5t112 -39t128 -35t128 -42.5t112 -61t79 -90.5t30 -130.5q0 -156 -132 -250t-329 -94q-281 0 -452 167z" />
    <glyph glyph-name="T.small" horiz-adv-x="1077" 
d="M1042 1155v-143h-421v-1012h-164v1012h-422v143h1007z" />
    <glyph glyph-name="U.small" horiz-adv-x="1191" 
d="M596 -20q-132 0 -241 56.5t-174.5 163.5t-65.5 244v711h164v-709q0 -139 92 -228t225 -89q134 0 225.5 89t91.5 228v709h164v-711q0 -137 -65.5 -244t-175 -163.5t-240.5 -56.5z" />
    <glyph glyph-name="V.small" horiz-adv-x="1191" 
d="M520 -4l-502 1159h166l324 -733q15 -34 37 -92t37 -99l14 -41q55 156 88 232l324 733h166l-504 -1159h-150z" />
    <glyph glyph-name="W.small" horiz-adv-x="1667" 
d="M397 -4l-379 1159h164l250 -770l51 -168q20 92 43 168l222 770h172l221 -770q10 -34 21 -76t16 -67l6 -25q26 92 51 168l252 770h162l-381 -1159h-166l-225 754q-12 39 -22.5 88t-15.5 78l-5 30q-16 -108 -43 -196l-226 -754h-168z" />
    <glyph glyph-name="X.small" horiz-adv-x="1093" 
d="M18 0l435 578l-430 577h190l225 -291q19 -25 46.5 -66t45.5 -70l17 -28q71 111 110 164l224 291h190l-430 -577l434 -578h-190l-228 297q-18 24 -45.5 63.5t-45.5 67.5l-19 27q-74 -111 -111 -158l-227 -297h-191z" />
    <glyph glyph-name="Y.small" horiz-adv-x="1118" 
d="M479 0v543l-461 612h187l215 -276q26 -35 61.5 -84.5t57.5 -82.5l22 -32q84 123 141 199l209 276h189l-457 -610v-545h-164z" />
    <glyph glyph-name="Z.small" horiz-adv-x="1071" 
d="M61 0v131l635 772q26 32 51.5 59t37.5 38l12 12h-703v143h899v-131l-622 -760q-28 -34 -55 -64t-40 -44l-14 -13h748v-143h-949z" />
    <glyph glyph-name="Agrave.small" horiz-adv-x="1245" 
d="M559 1255l-192 273h174l166 -273h-148zM12 0l541 1159h141l539 -1159h-166l-94 199h-701l-92 -199h-168zM334 332h579l-190 401q-23 49 -47.5 108t-38 93t-14.5 35q-46 -125 -97 -234z" />
    <glyph glyph-name="Aacute.small" horiz-adv-x="1245" 
d="M539 1255l166 273h174l-193 -273h-147zM12 0l541 1159h141l539 -1159h-166l-94 199h-701l-92 -199h-168zM334 332h579l-190 401q-23 49 -47.5 108t-38 93t-14.5 35q-46 -125 -97 -234z" />
    <glyph glyph-name="Acircumflex.small" horiz-adv-x="1245" 
d="M12 0l541 1159h141l539 -1159h-166l-94 199h-701l-92 -199h-168zM334 332h579l-190 401q-23 49 -47.5 108t-38 93t-14.5 35q-46 -125 -97 -234zM356 1255l181 273h174l180 -273h-133l-135 179l-136 -179h-131z" />
    <glyph glyph-name="Atilde.small" horiz-adv-x="1245" 
d="M356 1245q0 92 40.5 150.5t105.5 58.5q43 0 89.5 -24t84 -48t59.5 -24q31 0 45.5 27.5t14.5 68.5h98q0 -92 -40 -150.5t-105 -58.5q-42 0 -88.5 24t-84.5 48t-59 24q-59 0 -59 -96h-101zM12 0l541 1159h141l539 -1159h-166l-94 199h-701l-92 -199h-168zM334 332h579
l-190 401q-23 49 -47.5 108t-38 93t-14.5 35q-46 -125 -97 -234z" />
    <glyph glyph-name="Adieresis.small" horiz-adv-x="1245" 
d="M12 0l541 1159h141l539 -1159h-166l-94 199h-701l-92 -199h-168zM334 332h579l-190 401q-23 49 -47.5 108t-38 93t-14.5 35q-46 -125 -97 -234zM371 1335q0 38 27 65t65 27q37 0 63.5 -27t26.5 -65q0 -37 -26.5 -63.5t-63.5 -26.5q-38 0 -65 26.5t-27 63.5zM692 1335
q0 38 28 65t66 27q37 0 64 -27t27 -65q0 -37 -27 -63.5t-64 -26.5q-38 0 -66 26.5t-28 63.5z" />
    <glyph glyph-name="Amacron.small" horiz-adv-x="1245" 
d="M420 1276v121h409v-121h-409zM12 0l541 1159h141l539 -1159h-166l-94 199h-701l-92 -199h-168zM334 332h579l-190 401q-23 49 -47.5 108t-38 93t-14.5 35q-46 -125 -97 -234z" />
    <glyph glyph-name="Abreve.small" horiz-adv-x="1245" 
d="M625 1245q-96 0 -154.5 63.5t-58.5 155.5h94q6 -51 39.5 -78.5t79.5 -27.5t79 27.5t37 78.5h97q0 -92 -58.5 -155.5t-154.5 -63.5zM12 0l541 1159h141l539 -1159h-166l-94 199h-701l-92 -199h-168zM334 332h579l-190 401q-23 49 -47.5 108t-38 93t-14.5 35
q-46 -125 -97 -234z" />
    <glyph glyph-name="Aring.small" horiz-adv-x="1245" 
d="M426 1425q0 84 59.5 143.5t143.5 59.5t143 -59.5t59 -143.5q0 -85 -58.5 -144.5t-143.5 -59.5t-144 59.5t-59 144.5zM518 1425q0 -48 32 -83t79 -35t78.5 35t31.5 83q0 47 -32 82t-78 35t-78.5 -35t-32.5 -82zM12 0l541 1159h141l539 -1159h-166l-94 199h-701l-92 -199
h-168zM334 332h579l-190 401q-23 49 -47.5 108t-38 93t-14.5 35q-46 -125 -97 -234z" />
    <glyph glyph-name="Aringacute.small" horiz-adv-x="1245" 
d="M12 0l541 1159h141l539 -1159h-166l-94 199h-701l-92 -199h-168zM334 332h579l-190 401q-23 49 -47.5 108t-38 93t-14.5 35q-46 -125 -97 -234zM426 1425q0 55 27 101t73 73l148 263h162l-158 -240q66 -17 109.5 -72.5t43.5 -124.5q0 -85 -58.5 -144.5t-143.5 -59.5
t-144 59.5t-59 144.5zM518 1425q0 -48 32 -83t79 -35t78.5 35t31.5 83q0 47 -32 82t-78 35t-78.5 -35t-32.5 -82z" />
    <glyph glyph-name="Aogonek.small" horiz-adv-x="1247" 
d="M12 0l541 1159h141l539 -1159h-62q-42 -39 -70 -102t-28 -119q0 -55 32.5 -87t82.5 -32q34 0 82 23l33 -82q-67 -52 -152 -52q-77 0 -135 51t-58 138q0 69 29 139.5t80 122.5l-94 199h-701l-92 -199h-168zM334 332h579l-190 401q-23 49 -47.5 108t-38 93t-14.5 35
q-46 -125 -97 -234z" />
    <glyph glyph-name="AE.small" horiz-adv-x="1708" 
d="M12 0l744 1155h866v-143h-635v-332h594v-141h-594v-396h660v-143h-824v199h-501l-127 -199h-183zM403 332h420v680q-43 -84 -94 -166z" />
    <glyph glyph-name="AEacute.small" horiz-adv-x="1716" 
d="M999 1255l166 273h174l-192 -273h-148zM12 0l744 1155h866v-143h-635v-332h594v-141h-594v-396h660v-143h-824v199h-501l-127 -199h-183zM403 332h420v680q-43 -84 -94 -166z" />
    <glyph glyph-name="Cacute.small" horiz-adv-x="1148" 
d="M580 1255l165 273h175l-193 -273h-147zM80 575q0 122 46.5 232t126 189.5t191.5 126t238 46.5q232 0 397 -143l-98 -111q-125 107 -289 107q-188 0 -315 -131t-127 -316t125.5 -315.5t308.5 -130.5q192 0 322 133l102 -112q-175 -170 -424 -170q-169 0 -308 80
t-217.5 216.5t-78.5 298.5z" />
    <glyph glyph-name="Ccircumflex.small" horiz-adv-x="1148" 
d="M80 575q0 122 46.5 232t126 189.5t191.5 126t238 46.5q232 0 397 -143l-98 -111q-125 107 -289 107q-188 0 -315 -131t-127 -316t125.5 -315.5t308.5 -130.5q192 0 322 133l102 -112q-175 -170 -424 -170q-169 0 -308 80t-217.5 216.5t-78.5 298.5zM418 1255l180 273h174
l180 -273h-133l-135 179l-135 -179h-131z" />
    <glyph glyph-name="Ccaron.small" horiz-adv-x="1148" 
d="M598 1255l-180 273h133l133 -178l135 178h133l-180 -273h-174zM80 575q0 122 46.5 232t126 189.5t191.5 126t238 46.5q232 0 397 -143l-98 -111q-125 107 -289 107q-188 0 -315 -131t-127 -316t125.5 -315.5t308.5 -130.5q192 0 322 133l102 -112q-175 -170 -424 -170
q-169 0 -308 80t-217.5 216.5t-78.5 298.5z" />
    <glyph glyph-name="Cdotaccent.small" horiz-adv-x="1148" 
d="M80 575q0 122 46.5 232t126 189.5t191.5 126t238 46.5q232 0 397 -143l-98 -111q-125 107 -289 107q-188 0 -315 -131t-127 -316t125.5 -315.5t308.5 -130.5q192 0 322 133l102 -112q-175 -170 -424 -170q-169 0 -308 80t-217.5 216.5t-78.5 298.5zM573 1348
q0 43 31 73.5t74 30.5q41 0 71.5 -30.5t30.5 -73.5q0 -41 -30.5 -72t-71.5 -31q-43 0 -74 31t-31 72z" />
    <glyph glyph-name="Ccedilla.small" horiz-adv-x="1148" 
d="M426 -379l45 74q77 -49 170 -49q65 0 104 32t39 72q0 34 -26.5 52t-63.5 18q-36 0 -70.5 -16.5t-50.5 -39.5l-88 33l113 189q-226 31 -372 197t-146 392q0 122 46.5 232t126 189.5t191.5 126t238 46.5q232 0 397 -143l-98 -111q-125 107 -289 107q-188 0 -315 -131
t-127 -316t125.5 -315.5t308.5 -130.5q192 0 322 133l102 -112q-167 -164 -414 -170l-59 -105q44 19 84 19q74 0 124 -38t50 -102q0 -82 -72 -136t-180 -54q-129 0 -215 57z" />
    <glyph glyph-name="Dcaron.small" horiz-adv-x="1263" 
d="M457 1255l-181 273h134l133 -178l135 178h133l-180 -273h-174zM297 143h270q199 0 322 122.5t123 312.5t-123 312t-322 122h-270v-869zM133 0v1155h442q136 0 251 -46t193 -124.5t121.5 -183.5t43.5 -223t-43.5 -223.5t-121.5 -184t-193 -124.5t-251 -46h-442z" />
    <glyph glyph-name="Dcroat.small" horiz-adv-x="1263" 
d="M133 0v530h-160v123h160v502h453q170 0 308 -78t214 -210t76 -289q0 -118 -45 -224t-123 -184t-190 -124t-240 -46h-453zM297 143h283q186 0 309 125.5t123 309.5q0 106 -38.5 190t-107 136.5t-159.5 80t-199 27.5h-211v-359h307v-123h-307v-387z" />
    <glyph glyph-name="Egrave.small" horiz-adv-x="1116" 
d="M567 1255l-192 273h174l166 -273h-148zM133 0v1155h897v-143h-733v-330h694v-141h-694v-398h758v-143h-922z" />
    <glyph glyph-name="Eacute.small" horiz-adv-x="1116" 
d="M455 1255l166 273h174l-193 -273h-147zM133 0v1155h897v-143h-733v-330h694v-141h-694v-398h758v-143h-922z" />
    <glyph glyph-name="Ecircumflex.small" horiz-adv-x="1116" 
d="M133 0v1155h897v-143h-733v-330h694v-141h-694v-398h758v-143h-922zM332 1255l180 273h174l180 -273h-133l-135 179l-135 -179h-131z" />
    <glyph glyph-name="Ecaron.small" horiz-adv-x="1116" 
d="M502 1255l-180 273h133l133 -178l135 178h133l-180 -273h-174zM133 0v1155h897v-143h-733v-330h694v-141h-694v-398h758v-143h-922z" />
    <glyph glyph-name="Edieresis.small" horiz-adv-x="1116" 
d="M133 0v1155h897v-143h-733v-330h694v-141h-694v-398h758v-143h-922zM346 1335q0 38 27 65t65 27q37 0 63.5 -27t26.5 -65q0 -37 -26.5 -63.5t-63.5 -26.5q-38 0 -65 26.5t-27 63.5zM668 1335q0 38 28 65t66 27q37 0 63.5 -27t26.5 -65q0 -37 -26.5 -63.5t-63.5 -26.5
q-38 0 -66 26.5t-28 63.5z" />
    <glyph glyph-name="Emacron.small" horiz-adv-x="1116" 
d="M377 1276v121h409v-121h-409zM133 0v1155h897v-143h-733v-330h694v-141h-694v-398h758v-143h-922z" />
    <glyph glyph-name="Ebreve.small" horiz-adv-x="1116" 
d="M590 1245q-96 0 -154.5 63.5t-58.5 155.5h94q6 -51 39.5 -78.5t79.5 -27.5q47 0 80 28t37 78h96q0 -92 -58.5 -155.5t-154.5 -63.5zM133 0v1155h897v-143h-733v-330h694v-141h-694v-398h758v-143h-922z" />
    <glyph glyph-name="Edotaccent.small" horiz-adv-x="1116" 
d="M133 0v1155h897v-143h-733v-330h694v-141h-694v-398h758v-143h-922zM485 1348q0 43 31 73.5t74 30.5q41 0 71.5 -30.5t30.5 -73.5q0 -41 -30.5 -72t-71.5 -31q-43 0 -74 31t-31 72z" />
    <glyph glyph-name="Eogonek.small" horiz-adv-x="1128" 
d="M133 0v1155h897v-143h-733v-330h694v-141h-694v-398h758v-143h-150q-42 -39 -70 -102t-28 -119q0 -55 32.5 -87t82.5 -32q34 0 82 23l32 -82q-67 -52 -151 -52q-77 0 -135 51t-58 138q0 69 29 139.5t80 122.5h-668z" />
    <glyph glyph-name="Gcircumflex.small" horiz-adv-x="1275" 
d="M80 575q0 121 46.5 231t126 189.5t192 126.5t239.5 47q228 0 399 -145l-100 -113q-123 111 -299 111q-120 0 -220.5 -60.5t-157 -163t-56.5 -223.5q0 -185 125.5 -315.5t308.5 -130.5q102 0 190.5 45t149.5 125v225h-240v140h398v-426q-79 -120 -211 -189t-287 -69
q-127 0 -239.5 47t-192 126.5t-126 189.5t-46.5 232zM389 1255l180 273h174l181 -273h-133l-136 179l-135 -179h-131z" />
    <glyph glyph-name="Gbreve.small" horiz-adv-x="1275" 
d="M668 1245q-96 0 -154.5 63.5t-58.5 155.5h94q6 -51 39.5 -78.5t79.5 -27.5t79 27.5t37 78.5h97q0 -92 -58.5 -155.5t-154.5 -63.5zM80 575q0 121 46.5 231t126 189.5t192 126.5t239.5 47q228 0 399 -145l-100 -113q-123 111 -299 111q-120 0 -220.5 -60.5t-157 -163
t-56.5 -223.5q0 -185 125.5 -315.5t308.5 -130.5q102 0 190.5 45t149.5 125v225h-240v140h398v-426q-79 -120 -211 -189t-287 -69q-127 0 -239.5 47t-192 126.5t-126 189.5t-46.5 232z" />
    <glyph glyph-name="Gdotaccent.small" horiz-adv-x="1275" 
d="M80 575q0 121 46.5 231t126 189.5t192 126.5t239.5 47q228 0 399 -145l-100 -113q-123 111 -299 111q-120 0 -220.5 -60.5t-157 -163t-56.5 -223.5q0 -185 125.5 -315.5t308.5 -130.5q102 0 190.5 45t149.5 125v225h-240v140h398v-426q-79 -120 -211 -189t-287 -69
q-127 0 -239.5 47t-192 126.5t-126 189.5t-46.5 232zM565 1348q0 43 31 73.5t74 30.5q41 0 71.5 -30.5t30.5 -73.5q0 -41 -30.5 -72t-71.5 -31q-43 0 -74 31t-31 72z" />
    <glyph glyph-name="Gcommaaccent.small" horiz-adv-x="1275" 
d="M80 575q0 121 46.5 231t126 189.5t192 126.5t239.5 47q228 0 399 -145l-100 -113q-123 111 -299 111q-120 0 -220.5 -60.5t-157 -163t-56.5 -223.5q0 -185 125.5 -315.5t308.5 -130.5q102 0 190.5 45t149.5 125v225h-240v140h398v-426q-79 -120 -211 -189t-287 -69
q-127 0 -239.5 47t-192 126.5t-126 189.5t-46.5 232zM547 -481q51 52 88 127.5t37 150.5q0 34 -19 72l119 41q23 -52 23 -94q0 -101 -46.5 -178.5t-101.5 -118.5h-100z" />
    <glyph glyph-name="Hcircumflex.small" horiz-adv-x="1226" 
d="M133 0v1155h164v-471h633v471h164v-1155h-164v541h-633v-541h-164zM354 1255l181 273h174l180 -273h-133l-135 179l-136 -179h-131z" />
    <glyph glyph-name="Hbar.small" horiz-adv-x="1226" 
d="M133 0v883h-72v114h72v158h164v-158h633v158h164v-158h71v-114h-71v-883h-164v541h-633v-541h-164zM297 684h633v199h-633v-199z" />
    <glyph glyph-name="Igrave.small" horiz-adv-x="430" 
d="M166 1255l-193 273h174l166 -273h-147zM133 0v1155h164v-1155h-164z" />
    <glyph glyph-name="Iacute.small" horiz-adv-x="430" 
d="M115 1255l166 273h174l-193 -273h-147zM133 0v1155h164v-1155h-164z" />
    <glyph glyph-name="Icircumflex.small" horiz-adv-x="430" 
d="M133 0v1155h164v-1155h-164zM-51 1255l180 273h174l180 -273h-133l-135 179l-135 -179h-131z" />
    <glyph glyph-name="Itilde.small" horiz-adv-x="430" 
d="M-53 1245q0 92 40 150.5t105 58.5q43 0 89.5 -24t84.5 -48t60 -24q59 0 59 96h98q0 -92 -40 -150.5t-105 -58.5q-42 0 -88.5 24t-84.5 48t-59 24q-59 0 -59 -96h-100zM133 0v1155h164v-1155h-164z" />
    <glyph glyph-name="Idieresis.small" horiz-adv-x="430" 
d="M133 0v1155h164v-1155h-164zM-39 1335q0 38 27 65t65 27q37 0 63.5 -27t26.5 -65q0 -37 -26.5 -63.5t-63.5 -26.5q-38 0 -65 26.5t-27 63.5zM283 1335q0 38 28 65t66 27q37 0 63.5 -27t26.5 -65q0 -37 -26.5 -63.5t-63.5 -26.5q-38 0 -66 26.5t-28 63.5z" />
    <glyph glyph-name="Imacron.small" horiz-adv-x="430" 
d="M10 1276v121h410v-121h-410zM133 0v1155h164v-1155h-164z" />
    <glyph glyph-name="Ibreve.small" horiz-adv-x="430" 
d="M215 1245q-96 0 -154.5 63.5t-58.5 155.5h94q6 -51 39.5 -78.5t79.5 -27.5q47 0 80 28t37 78h96q0 -92 -58.5 -155.5t-154.5 -63.5zM133 0v1155h164v-1155h-164z" />
    <glyph glyph-name="Idotaccent.small" horiz-adv-x="430" 
d="M133 0v1155h164v-1155h-164zM111 1348q0 43 30.5 73.5t73.5 30.5q41 0 71.5 -30.5t30.5 -73.5q0 -41 -30.5 -72t-71.5 -31q-43 0 -73.5 30.5t-30.5 72.5z" />
    <glyph glyph-name="Iogonek.small" horiz-adv-x="430" 
d="M14 -262q0 72 32 145t87 127v1145h164v-1155h-70q-42 -39 -70 -102t-28 -119q0 -55 32.5 -87t82.5 -32q34 0 82 23l32 -82q-67 -52 -151 -52q-77 0 -135 51t-58 138z" />
    <glyph glyph-name="Jcircumflex.small" horiz-adv-x="966" 
d="M43 195l123 90q76 -154 242 -154q128 0 204 82.5t76 241.5v700h164v-688q0 -128 -35 -224t-97 -152t-140 -83.5t-172 -27.5q-120 0 -214.5 54.5t-150.5 160.5zM500 1255l180 273h174l180 -273h-133l-135 179l-135 -179h-131z" />
    <glyph glyph-name="Kcommaaccent.small" horiz-adv-x="1159" 
d="M133 0v1155h164v-723q68 99 115 154l491 569h195l-449 -534l492 -621h-195l-399 506l-250 -287v-219h-164zM360 -481q51 52 88 127.5t37 150.5q0 36 -18 72l119 41q22 -50 22 -94q0 -101 -46 -178.5t-101 -118.5h-101z" />
    <glyph glyph-name="Lacute.small" horiz-adv-x="1075" 
d="M121 1255l166 273h174l-193 -273h-147zM133 0v1155h164v-1012h717v-143h-881z" />
    <glyph glyph-name="Lcaron.small" horiz-adv-x="1075" 
d="M133 0v1155h164v-1012h717v-143h-881zM373 758q53 57 91 134.5t38 154.5q0 35 -21 75l123 41q23 -52 23 -96q0 -105 -47.5 -185.5t-104.5 -123.5h-102z" />
    <glyph glyph-name="Lcommaaccent.small" horiz-adv-x="1075" 
d="M133 0v1155h164v-1012h717v-143h-881zM440 -481q51 52 88 127.5t37 150.5q0 36 -18 72l119 41q22 -50 22 -94q0 -101 -46 -178.5t-101 -118.5h-101z" />
    <glyph glyph-name="Lslash.small" horiz-adv-x="1075" 
d="M133 0v510l-121 -51v135l121 51v510h164v-440l315 135v-131l-315 -139v-437h717v-143h-881z" />
    <glyph glyph-name="Nacute.small" horiz-adv-x="1257" 
d="M518 1255l166 273h174l-192 -273h-148zM133 0v1155h162l508 -663q35 -45 74.5 -104.5t61.5 -96.5l22 -37v901h163v-1155h-166l-489 639q-41 54 -84 117.5t-65 99.5l-23 37v-893h-164z" />
    <glyph glyph-name="Ncaron.small" horiz-adv-x="1257" 
d="M541 1255l-181 273h134l133 -178l135 178h133l-180 -273h-174zM133 0v1155h162l508 -663q35 -45 74.5 -104.5t61.5 -96.5l22 -37v901h163v-1155h-166l-489 639q-41 54 -84 117.5t-65 99.5l-23 37v-893h-164z" />
    <glyph glyph-name="Ntilde.small" horiz-adv-x="1257" 
d="M360 1245q0 92 40.5 150.5t105.5 58.5q43 0 89.5 -24t84 -48t59.5 -24q31 0 45.5 27.5t14.5 68.5h98q0 -92 -40 -150.5t-105 -58.5q-42 0 -88.5 24t-84.5 48t-59 24q-59 0 -59 -96h-101zM133 0v1155h162l508 -663q35 -45 74.5 -104.5t61.5 -96.5l22 -37v901h163v-1155
h-166l-489 639q-41 54 -84 117.5t-65 99.5l-23 37v-893h-164z" />
    <glyph glyph-name="Ncommaaccent.small" horiz-adv-x="1257" 
d="M133 0v1155h162l508 -663q35 -45 74.5 -104.5t61.5 -96.5l22 -37v901h163v-1155h-166l-489 639q-41 54 -84 117.5t-65 99.5l-23 37v-893h-164zM494 -481q50 52 87 127t37 151q0 36 -18 72l119 41q22 -50 22 -94q0 -101 -46 -178.5t-101 -118.5h-100z" />
    <glyph glyph-name="Ograve.small" horiz-adv-x="1366" 
d="M635 1255l-193 273h174l166 -273h-147zM80 575q0 163 78.5 299t217.5 215.5t308 79.5q126 0 238 -46.5t191.5 -126t126 -189.5t46.5 -232q0 -162 -78.5 -298.5t-217 -216.5t-306.5 -80q-169 0 -308 80t-217.5 216.5t-78.5 298.5zM250 575q0 -185 125.5 -315.5
t308.5 -130.5q182 0 307 131t125 315q0 121 -56.5 223.5t-156 163t-219.5 60.5t-220.5 -60.5t-157 -163t-56.5 -223.5z" />
    <glyph glyph-name="Oacute.small" horiz-adv-x="1366" 
d="M584 1255l166 273h174l-193 -273h-147zM80 575q0 163 78.5 299t217.5 215.5t308 79.5q126 0 238 -46.5t191.5 -126t126 -189.5t46.5 -232q0 -162 -78.5 -298.5t-217 -216.5t-306.5 -80q-169 0 -308 80t-217.5 216.5t-78.5 298.5zM250 575q0 -185 125.5 -315.5
t308.5 -130.5q182 0 307 131t125 315q0 121 -56.5 223.5t-156 163t-219.5 60.5t-220.5 -60.5t-157 -163t-56.5 -223.5z" />
    <glyph glyph-name="Ocircumflex.small" horiz-adv-x="1366" 
d="M80 575q0 163 78.5 299t217.5 215.5t308 79.5q126 0 238 -46.5t191.5 -126t126 -189.5t46.5 -232q0 -162 -78.5 -298.5t-217 -216.5t-306.5 -80q-169 0 -308 80t-217.5 216.5t-78.5 298.5zM250 575q0 -185 125.5 -315.5t308.5 -130.5q182 0 307 131t125 315
q0 121 -56.5 223.5t-156 163t-219.5 60.5t-220.5 -60.5t-157 -163t-56.5 -223.5zM418 1255l180 273h174l180 -273h-133l-135 179l-135 -179h-131z" />
    <glyph glyph-name="Otilde.small" horiz-adv-x="1366" 
d="M414 1245q0 92 40 150.5t105 58.5q43 0 89.5 -24t84.5 -48t60 -24q59 0 59 96h98q0 -92 -40 -150.5t-105 -58.5q-42 0 -88.5 24t-84.5 48t-59 24q-59 0 -59 -96h-100zM80 575q0 163 78.5 299t217.5 215.5t308 79.5q126 0 238 -46.5t191.5 -126t126 -189.5t46.5 -232
q0 -162 -78.5 -298.5t-217 -216.5t-306.5 -80q-169 0 -308 80t-217.5 216.5t-78.5 298.5zM250 575q0 -185 125.5 -315.5t308.5 -130.5q182 0 307 131t125 315q0 121 -56.5 223.5t-156 163t-219.5 60.5t-220.5 -60.5t-157 -163t-56.5 -223.5z" />
    <glyph glyph-name="Odieresis.small" horiz-adv-x="1366" 
d="M80 575q0 163 78.5 299t217.5 215.5t308 79.5q126 0 238 -46.5t191.5 -126t126 -189.5t46.5 -232q0 -162 -78.5 -298.5t-217 -216.5t-306.5 -80q-169 0 -308 80t-217.5 216.5t-78.5 298.5zM250 575q0 -185 125.5 -315.5t308.5 -130.5q182 0 307 131t125 315
q0 121 -56.5 223.5t-156 163t-219.5 60.5t-220.5 -60.5t-157 -163t-56.5 -223.5zM430 1335q0 38 27 65t65 27q37 0 63.5 -27t26.5 -65q0 -37 -26.5 -63.5t-63.5 -26.5q-38 0 -65 26.5t-27 63.5zM752 1335q0 38 28 65t66 27q37 0 63.5 -27t26.5 -65q0 -37 -26.5 -63.5
t-63.5 -26.5q-38 0 -66 26.5t-28 63.5z" />
    <glyph glyph-name="Omacron.small" horiz-adv-x="1366" 
d="M479 1276v121h410v-121h-410zM80 575q0 163 78.5 299t217.5 215.5t308 79.5q126 0 238 -46.5t191.5 -126t126 -189.5t46.5 -232q0 -162 -78.5 -298.5t-217 -216.5t-306.5 -80q-169 0 -308 80t-217.5 216.5t-78.5 298.5zM250 575q0 -185 125.5 -315.5t308.5 -130.5
q182 0 307 131t125 315q0 121 -56.5 223.5t-156 163t-219.5 60.5t-220.5 -60.5t-157 -163t-56.5 -223.5z" />
    <glyph glyph-name="Obreve.small" horiz-adv-x="1366" 
d="M684 1245q-96 0 -154.5 63.5t-58.5 155.5h94q6 -51 39.5 -78.5t79.5 -27.5q47 0 80 28t37 78h96q0 -92 -58.5 -155.5t-154.5 -63.5zM80 575q0 163 78.5 299t217.5 215.5t308 79.5q126 0 238 -46.5t191.5 -126t126 -189.5t46.5 -232q0 -162 -78.5 -298.5t-217 -216.5
t-306.5 -80q-169 0 -308 80t-217.5 216.5t-78.5 298.5zM250 575q0 -185 125.5 -315.5t308.5 -130.5q182 0 307 131t125 315q0 121 -56.5 223.5t-156 163t-219.5 60.5t-220.5 -60.5t-157 -163t-56.5 -223.5z" />
    <glyph glyph-name="Ohungarumlaut.small" horiz-adv-x="1366" 
d="M80 575q0 163 78.5 299t217.5 215.5t308 79.5q126 0 238 -46.5t191.5 -126t126 -189.5t46.5 -232q0 -162 -78.5 -298.5t-217 -216.5t-306.5 -80q-169 0 -308 80t-217.5 216.5t-78.5 298.5zM250 575q0 -185 125.5 -315.5t308.5 -130.5q182 0 307 131t125 315
q0 121 -56.5 223.5t-156 163t-219.5 60.5t-220.5 -60.5t-157 -163t-56.5 -223.5zM465 1255l151 258h175l-199 -258h-127zM727 1255l152 258h174l-199 -258h-127z" />
    <glyph glyph-name="Oslash.small" horiz-adv-x="1366" 
d="M315 -125l-75 45l98 164q-121 80 -189.5 209t-68.5 282q0 163 78.5 299t217.5 215.5t308 79.5q147 0 268 -59l101 164l75 -45l-100 -162q120 -80 189 -210.5t69 -281.5q0 -162 -78.5 -298.5t-217 -216.5t-306.5 -80q-142 0 -270 61zM250 575q0 -106 45.5 -199.5
t124.5 -154.5l452 756q-85 45 -188 45q-120 0 -220.5 -60.5t-157 -163t-56.5 -223.5zM494 172q91 -43 190 -43q182 0 307 131t125 315q0 106 -45 199t-123 156z" />
    <glyph glyph-name="Oslashacute.small" horiz-adv-x="1366" 
d="M586 1255l166 273h174l-193 -273h-147zM315 -125l-75 45l98 164q-121 80 -189.5 209t-68.5 282q0 163 78.5 299t217.5 215.5t308 79.5q147 0 268 -59l101 164l75 -45l-100 -162q120 -80 189 -210.5t69 -281.5q0 -162 -78.5 -298.5t-217 -216.5t-306.5 -80q-142 0 -270 61
zM250 575q0 -106 45.5 -199.5t124.5 -154.5l452 756q-85 45 -188 45q-120 0 -220.5 -60.5t-157 -163t-56.5 -223.5zM494 172q91 -43 190 -43q182 0 307 131t125 315q0 106 -45 199t-123 156z" />
    <glyph glyph-name="OE.small" horiz-adv-x="1867" 
d="M80 575q0 163 78.5 299t217.5 215.5t308 79.5q166 0 299 -94v80h799v-143h-635v-332h594v-141h-594v-396h659v-143h-823v74q-129 -94 -299 -94q-169 0 -308 80t-217.5 216.5t-78.5 298.5zM250 575q0 -185 128.5 -315.5t315.5 -130.5q179 0 289 113v667q-113 113 -289 113
q-187 0 -315.5 -131t-128.5 -316z" />
    <glyph glyph-name="Racute.small" horiz-adv-x="1193" 
d="M410 1255l165 273h175l-193 -273h-147zM133 0v1155h477q228 0 364 -125t136 -311q0 -126 -67 -230t-187 -157l266 -332h-204l-222 289q-49 -4 -202 -4h-197v-285h-164zM297 426h328q137 0 225 85t88 208q0 124 -87 208.5t-224 84.5h-330v-586z" />
    <glyph glyph-name="Rcaron.small" horiz-adv-x="1193" 
d="M453 1255l-181 273h134l133 -178l135 178h133l-180 -273h-174zM133 0v1155h477q228 0 364 -125t136 -311q0 -126 -67 -230t-187 -157l266 -332h-204l-222 289q-49 -4 -202 -4h-197v-285h-164zM297 426h328q137 0 225 85t88 208q0 124 -87 208.5t-224 84.5h-330v-586z" />
    <glyph glyph-name="Rcommaaccent.small" horiz-adv-x="1193" 
d="M133 0v1155h477q228 0 364 -125t136 -311q0 -126 -67 -230t-187 -157l266 -332h-204l-222 289q-49 -4 -202 -4h-197v-285h-164zM297 426h328q137 0 225 85t88 208q0 124 -87 208.5t-224 84.5h-330v-586zM387 -481q51 52 88 127.5t37 150.5q0 36 -18 72l118 41
q23 -52 23 -94q0 -101 -46.5 -178.5t-101.5 -118.5h-100z" />
    <glyph glyph-name="Sacute.small" horiz-adv-x="1071" 
d="M438 1255l166 273h174l-192 -273h-148zM78 147l80 125q155 -145 368 -145q132 0 214.5 56.5t82.5 140.5q0 49 -30 85t-79 56.5t-112 40t-128 34.5t-128 41t-112 58t-79 86.5t-30 126.5q0 99 60.5 173t151 109t195.5 35q222 0 400 -127l-72 -124q-144 106 -330 106
q-89 0 -163 -45.5t-74 -122.5q0 -46 30 -80t79 -53.5t112 -39t128 -35t128 -42.5t112 -61t79 -90.5t30 -130.5q0 -156 -132 -250t-329 -94q-281 0 -452 167z" />
    <glyph glyph-name="Scircumflex.small" horiz-adv-x="1071" 
d="M78 147l80 125q155 -145 368 -145q132 0 214.5 56.5t82.5 140.5q0 49 -30 85t-79 56.5t-112 40t-128 34.5t-128 41t-112 58t-79 86.5t-30 126.5q0 99 60.5 173t151 109t195.5 35q222 0 400 -127l-72 -124q-144 106 -330 106q-89 0 -163 -45.5t-74 -122.5q0 -46 30 -80
t79 -53.5t112 -39t128 -35t128 -42.5t112 -61t79 -90.5t30 -130.5q0 -156 -132 -250t-329 -94q-281 0 -452 167zM272 1255l181 273h174l180 -273h-133l-135 179l-136 -179h-131z" />
    <glyph glyph-name="Scaron.small" horiz-adv-x="1071" 
d="M451 1255l-181 273h133l134 -178l135 178h133l-180 -273h-174zM78 147l80 125q155 -145 368 -145q132 0 214.5 56.5t82.5 140.5q0 49 -30 85t-79 56.5t-112 40t-128 34.5t-128 41t-112 58t-79 86.5t-30 126.5q0 99 60.5 173t151 109t195.5 35q222 0 400 -127l-72 -124
q-144 106 -330 106q-89 0 -163 -45.5t-74 -122.5q0 -46 30 -80t79 -53.5t112 -39t128 -35t128 -42.5t112 -61t79 -90.5t30 -130.5q0 -156 -132 -250t-329 -94q-281 0 -452 167z" />
    <glyph glyph-name="Scedilla.small" horiz-adv-x="1071" 
d="M332 -379l45 74q77 -49 170 -49q65 0 104 32t39 72q0 34 -26.5 52t-63.5 18q-36 0 -70.5 -16.5t-50.5 -39.5l-88 33l109 183q-262 11 -422 167l80 125q155 -145 368 -145q132 0 214.5 56.5t82.5 140.5q0 49 -30 85t-79 56.5t-112 40t-128 34.5t-128 41t-112 58t-79 86.5
t-30 126.5q0 99 60.5 173t151 109t195.5 35q222 0 400 -127l-72 -124q-144 106 -330 106q-89 0 -163 -45.5t-74 -122.5q0 -46 30 -80t79 -53.5t112 -39t128 -35t128 -42.5t112 -61t79 -90.5t30 -130.5q0 -141 -109 -231.5t-280 -108.5l-61 -109q44 19 84 19q74 0 124 -38
t50 -102q0 -82 -72 -136t-180 -54q-129 0 -215 57z" />
    <glyph glyph-name="Scommaaccent.small" horiz-adv-x="1071" 
d="M78 147l80 125q155 -145 368 -145q132 0 214.5 56.5t82.5 140.5q0 49 -30 85t-79 56.5t-112 40t-128 34.5t-128 41t-112 58t-79 86.5t-30 126.5q0 99 60.5 173t151 109t195.5 35q222 0 400 -127l-72 -124q-144 106 -330 106q-89 0 -163 -45.5t-74 -122.5q0 -46 30 -80
t79 -53.5t112 -39t128 -35t128 -42.5t112 -61t79 -90.5t30 -130.5q0 -156 -132 -250t-329 -94q-281 0 -452 167zM383 -481q51 52 88 127.5t37 150.5q0 34 -19 72l119 41q23 -52 23 -94q0 -101 -46.5 -178.5t-101.5 -118.5h-100z" />
    <glyph glyph-name="germandbls.small" horiz-adv-x="983" 
d="M115 0v799q0 183 88.5 277.5t236.5 94.5q142 0 240 -94t98 -229q0 -180 -112 -258q109 -20 179 -104t70 -193q0 -139 -90 -226t-233 -87q-126 0 -203 67l60 131q44 -47 126 -47q80 0 130.5 51.5t50.5 128.5q0 82 -63.5 135.5t-184.5 53.5h-57v121h14q61 0 110.5 51
t49.5 153q0 86 -49.5 144.5t-131.5 58.5q-75 0 -120 -59t-45 -158v-811h-164z" />
    <glyph glyph-name="Tcaron.small" horiz-adv-x="1079" 
d="M451 1255l-181 273h133l134 -178l135 178h133l-180 -273h-174zM1042 1155v-143h-421v-1012h-164v1012h-422v143h1007z" />
    <glyph glyph-name="Tcommaaccent.small" horiz-adv-x="1079" 
d="M1042 1155v-143h-421v-1012h-164v1012h-422v143h1007zM379 -481q51 52 88 127.5t37 150.5q0 34 -19 72l119 41q23 -52 23 -94q0 -101 -46.5 -178.5t-101.5 -118.5h-100z" />
    <glyph glyph-name="Tbar.small" horiz-adv-x="1077" 
d="M1042 1155v-143h-421v-283h270v-115h-270v-614h-164v614h-271v115h271v283h-422v143h1007z" />
    <glyph glyph-name="Ugrave.small" horiz-adv-x="1191" 
d="M565 1255l-192 273h174l166 -273h-148zM596 -20q-132 0 -241 56.5t-174.5 163.5t-65.5 244v711h164v-709q0 -139 92 -228t225 -89q134 0 225.5 89t91.5 228v709h164v-711q0 -137 -65.5 -244t-175 -163.5t-240.5 -56.5z" />
    <glyph glyph-name="Uacute.small" horiz-adv-x="1191" 
d="M492 1255l165 273h174l-192 -273h-147zM596 -20q-132 0 -241 56.5t-174.5 163.5t-65.5 244v711h164v-709q0 -139 92 -228t225 -89q134 0 225.5 89t91.5 228v709h164v-711q0 -137 -65.5 -244t-175 -163.5t-240.5 -56.5z" />
    <glyph glyph-name="Ucircumflex.small" horiz-adv-x="1191" 
d="M596 -20q-132 0 -241 56.5t-174.5 163.5t-65.5 244v711h164v-709q0 -139 92 -228t225 -89q134 0 225.5 89t91.5 228v709h164v-711q0 -137 -65.5 -244t-175 -163.5t-240.5 -56.5zM332 1255l180 273h174l180 -273h-133l-135 179l-135 -179h-131z" />
    <glyph glyph-name="Utilde.small" horiz-adv-x="1191" 
d="M328 1245q0 92 40 150.5t105 58.5q43 0 89.5 -24t84.5 -48t60 -24q59 0 59 96h98q0 -92 -40 -150.5t-105 -58.5q-42 0 -88.5 24t-84.5 48t-59 24q-59 0 -59 -96h-100zM596 -20q-132 0 -241 56.5t-174.5 163.5t-65.5 244v711h164v-709q0 -139 92 -228t225 -89
q134 0 225.5 89t91.5 228v709h164v-711q0 -137 -65.5 -244t-175 -163.5t-240.5 -56.5z" />
    <glyph glyph-name="Udieresis.small" horiz-adv-x="1191" 
d="M596 -20q-132 0 -241 56.5t-174.5 163.5t-65.5 244v711h164v-709q0 -139 92 -228t225 -89q134 0 225.5 89t91.5 228v709h164v-711q0 -137 -65.5 -244t-175 -163.5t-240.5 -56.5zM342 1335q0 38 27 65t65 27q37 0 63.5 -27t26.5 -65q0 -37 -26.5 -63.5t-63.5 -26.5
q-38 0 -65 26.5t-27 63.5zM664 1335q0 38 28 65t66 27q37 0 63.5 -27t26.5 -65q0 -37 -26.5 -63.5t-63.5 -26.5q-38 0 -66 26.5t-28 63.5z" />
    <glyph glyph-name="Umacron.small" horiz-adv-x="1191" 
d="M391 1276v121h410v-121h-410zM596 -20q-132 0 -241 56.5t-174.5 163.5t-65.5 244v711h164v-709q0 -139 92 -228t225 -89q134 0 225.5 89t91.5 228v709h164v-711q0 -137 -65.5 -244t-175 -163.5t-240.5 -56.5z" />
    <glyph glyph-name="Ubreve.small" horiz-adv-x="1191" 
d="M596 1245q-96 0 -154.5 63.5t-58.5 155.5h94q6 -51 39.5 -78.5t79.5 -27.5q47 0 80 28t37 78h96q0 -92 -58.5 -155.5t-154.5 -63.5zM596 -20q-132 0 -241 56.5t-174.5 163.5t-65.5 244v711h164v-709q0 -139 92 -228t225 -89q134 0 225.5 89t91.5 228v709h164v-711
q0 -137 -65.5 -244t-175 -163.5t-240.5 -56.5z" />
    <glyph glyph-name="Uring.small" horiz-adv-x="1191" 
d="M397 1407q0 84 59.5 143.5t143.5 59.5t143.5 -59.5t59.5 -143.5q0 -85 -59 -145t-144 -60t-144 60t-59 145zM489 1407q0 -48 32 -83.5t79 -35.5t79 35.5t32 83.5q0 47 -32.5 82t-78.5 35t-78.5 -35t-32.5 -82zM596 -20q-132 0 -241 56.5t-174.5 163.5t-65.5 244v711h164
v-709q0 -139 92 -228t225 -89q134 0 225.5 89t91.5 228v709h164v-711q0 -137 -65.5 -244t-175 -163.5t-240.5 -56.5z" />
    <glyph glyph-name="Uhungarumlaut.small" horiz-adv-x="1191" 
d="M596 -20q-132 0 -241 56.5t-174.5 163.5t-65.5 244v711h164v-709q0 -139 92 -228t225 -89q134 0 225.5 89t91.5 228v709h164v-711q0 -137 -65.5 -244t-175 -163.5t-240.5 -56.5zM365 1255l151 258h174l-198 -258h-127zM627 1255l151 258h174l-198 -258h-127z" />
    <glyph glyph-name="Uogonek.small" horiz-adv-x="1191" 
d="M596 -20q-132 0 -241 56.5t-174.5 163.5t-65.5 244v711h164v-709q0 -139 92 -228t225 -89q134 0 225.5 89t91.5 228v709h164v-711q0 -166 -93.5 -284.5t-242.5 -159.5q-43 -38 -70.5 -101t-27.5 -120q0 -55 32.5 -87t82.5 -32q34 0 82 23l32 -82q-67 -52 -151 -52
q-77 0 -135 51t-58 138q0 63 23.5 127t66.5 115h-22z" />
    <glyph glyph-name="Wgrave.small" horiz-adv-x="1667" 
d="M793 1255l-193 273h174l166 -273h-147zM397 -4l-379 1159h164l250 -770l51 -168q20 92 43 168l222 770h172l221 -770q10 -34 21 -76t16 -67l6 -25q26 92 51 168l252 770h162l-381 -1159h-166l-225 754q-12 39 -22.5 88t-15.5 78l-5 30q-16 -108 -43 -196l-226 -754h-168z
" />
    <glyph glyph-name="Wacute.small" horiz-adv-x="1667" 
d="M715 1255l166 273h174l-193 -273h-147zM397 -4l-379 1159h164l250 -770l51 -168q20 92 43 168l222 770h172l221 -770q10 -34 21 -76t16 -67l6 -25q26 92 51 168l252 770h162l-381 -1159h-166l-225 754q-12 39 -22.5 88t-15.5 78l-5 30q-16 -108 -43 -196l-226 -754h-168z
" />
    <glyph glyph-name="Wcircumflex.small" horiz-adv-x="1667" 
d="M397 -4l-379 1159h164l250 -770l51 -168q20 92 43 168l222 770h172l221 -770q10 -34 21 -76t16 -67l6 -25q26 92 51 168l252 770h162l-381 -1159h-166l-225 754q-12 39 -22.5 88t-15.5 78l-5 30q-16 -108 -43 -196l-226 -754h-168zM565 1255l180 273h175l180 -273h-133
l-136 179l-135 -179h-131z" />
    <glyph glyph-name="Wdieresis.small" horiz-adv-x="1667" 
d="M397 -4l-379 1159h164l250 -770l51 -168q20 92 43 168l222 770h172l221 -770q10 -34 21 -76t16 -67l6 -25q26 92 51 168l252 770h162l-381 -1159h-166l-225 754q-12 39 -22.5 88t-15.5 78l-5 30q-16 -108 -43 -196l-226 -754h-168zM578 1335q0 38 27 65t65 27
q37 0 63.5 -27t26.5 -65q0 -37 -26.5 -63.5t-63.5 -26.5q-38 0 -65 26.5t-27 63.5zM899 1335q0 38 28 65t66 27q37 0 63.5 -27t26.5 -65q0 -37 -26.5 -63.5t-63.5 -26.5q-38 0 -66 26.5t-28 63.5z" />
    <glyph glyph-name="Ygrave.small" horiz-adv-x="1118" 
d="M512 1255l-193 273h175l165 -273h-147zM479 0v543l-461 612h187l215 -276q26 -35 61.5 -84.5t57.5 -82.5l22 -32q84 123 141 199l209 276h189l-457 -610v-545h-164z" />
    <glyph glyph-name="Yacute.small" horiz-adv-x="1118" 
d="M457 1255l166 273h174l-193 -273h-147zM479 0v543l-461 612h187l215 -276q26 -35 61.5 -84.5t57.5 -82.5l22 -32q84 123 141 199l209 276h189l-457 -610v-545h-164z" />
    <glyph glyph-name="Ycircumflex.small" horiz-adv-x="1118" 
d="M479 0v543l-461 612h187l215 -276q26 -35 61.5 -84.5t57.5 -82.5l22 -32q84 123 141 199l209 276h189l-457 -610v-545h-164zM293 1255l180 273h174l180 -273h-133l-135 179l-135 -179h-131z" />
    <glyph glyph-name="Ydieresis.small" horiz-adv-x="1118" 
d="M479 0v543l-461 612h187l215 -276q26 -35 61.5 -84.5t57.5 -82.5l22 -32q84 123 141 199l209 276h189l-457 -610v-545h-164zM305 1335q0 38 27 65t65 27q37 0 63.5 -27t26.5 -65q0 -37 -26.5 -63.5t-63.5 -26.5q-38 0 -65 26.5t-27 63.5zM627 1335q0 38 28 65t66 27
q37 0 63.5 -27t26.5 -65q0 -37 -26.5 -63.5t-63.5 -26.5q-38 0 -66 26.5t-28 63.5z" />
    <glyph glyph-name="Zacute.small" horiz-adv-x="1071" 
d="M424 1255l166 273h174l-193 -273h-147zM61 0v131l635 772q26 32 51.5 59t37.5 38l12 12h-703v143h899v-131l-622 -760q-28 -34 -55 -64t-40 -44l-14 -13h748v-143h-949z" />
    <glyph glyph-name="Zcaron.small" horiz-adv-x="1071" 
d="M449 1255l-181 273h133l134 -178l135 178h133l-180 -273h-174zM61 0v131l635 772q26 32 51.5 59t37.5 38l12 12h-703v143h899v-131l-622 -760q-28 -34 -55 -64t-40 -44l-14 -13h748v-143h-949z" />
    <glyph glyph-name="Zdotaccent.small" horiz-adv-x="1071" 
d="M61 0v131l635 772q26 32 51.5 59t37.5 38l12 12h-703v143h899v-131l-622 -760q-28 -34 -55 -64t-40 -44l-14 -13h748v-143h-949zM432 1348q0 43 31 73.5t74 30.5q41 0 71.5 -30.5t30.5 -73.5q0 -41 -30.5 -72t-71.5 -31q-43 0 -74 31t-31 72z" />
    <glyph glyph-name="Eng.small" horiz-adv-x="1257" 
d="M133 0v1155h162l534 -698q27 -36 60 -86.5t53 -83.5l19 -33v901h163v-1143q0 -135 -87 -239.5t-232 -145.5l-41 127q89 33 137 98.5t51 153.5l-510 668q-34 44 -70 99.5t-56 88.5l-19 33v-895h-164z" />
    <glyph glyph-name="Eth.small" horiz-adv-x="1263" 
d="M133 0v530h-160v123h160v502h453q170 0 308 -78t214 -210t76 -289q0 -118 -45 -224t-123 -184t-190 -124t-240 -46h-453zM297 143h283q186 0 309 125.5t123 309.5q0 106 -38.5 190t-107 136.5t-159.5 80t-199 27.5h-211v-359h307v-123h-307v-387z" />
    <glyph glyph-name="Thorn.small" horiz-adv-x="1060" 
d="M133 0v1155h164v-184h295q163 0 278 -114t115 -275q0 -160 -115.5 -274.5t-277.5 -114.5h-295v-193h-164zM297 336h278q99 0 169.5 73t70.5 173t-70.5 172.5t-169.5 72.5h-278v-491z" />
    <glyph glyph-name="cent.oldstyle" horiz-adv-x="1128" 
d="M840 788q-41 42 -101 64t-112 22q-119 0 -209 -85.5t-90 -219.5q0 -72 27.5 -131.5t71.5 -96t97 -56t107 -19.5q136 0 235 99l95 -123q-117 -108 -275 -123v-205h-121v205q-167 22 -282 149t-115 301t115.5 300.5t281.5 148.5v201h121v-201q145 -18 254 -113z" />
    <glyph glyph-name="sterling.oldstyle" horiz-adv-x="1128" 
d="M145 0v129h138v387h-129v117h129v180q0 168 105.5 262t266.5 94q171 0 285 -106l-90 -111q-89 76 -193 76q-93 0 -155 -57.5t-62 -149.5v-188h342v-117h-342v-375h541v-141h-836z" />
    <glyph glyph-name="florin.oldstyle" horiz-adv-x="1128" 
d="M51 -96l84 98q57 -57 125 -57q93 0 125 116l150 560h-127l30 114h129l41 158q18 69 36 113.5t46 84.5t69.5 59t98.5 19q87 0 174 -55l-41 -117q-47 33 -96 33q-47 0 -75 -31t-44 -90l-47 -174h219l-33 -114h-215l-143 -533q-38 -148 -108.5 -217.5t-180.5 -69.5
q-126 0 -217 103z" />
    <glyph glyph-name="yen.oldstyle" horiz-adv-x="1128" 
d="M485 0v213h-235v106h235v111h-235v107h235v30l-376 588h184l205 -330q12 -19 29 -52t27 -56l11 -23q41 96 64 131l205 330h184l-375 -588v-30h236v-107h-236v-111h236v-106h-236v-213h-158z" />
    <glyph glyph-name="Euro.oldstyle" horiz-adv-x="1128" 
d="M115 410l26 104h99q-2 58 -2 64q0 10 1 30t1 29h-105l29 106h90q41 194 166.5 310t296.5 116q104 0 191.5 -44t150.5 -124l-94 -96q-97 123 -240 123q-112 0 -192 -77t-113 -208h452l-28 -106h-443q-4 -53 -4 -59l4 -64h418l-28 -104h-369q30 -132 110 -209.5t191 -77.5
q85 0 146 38.5t112 112.5l106 -88q-66 -98 -160.5 -152t-209.5 -54q-173 0 -297 117t-166 313h-139z" />
    <glyph glyph-name="dollar.oldstyle" horiz-adv-x="1128" 
d="M139 168l66 119q18 -20 44 -40.5t69.5 -47t106 -42.5t132.5 -16q112 0 190 55t78 140q0 45 -27 78.5t-71.5 53t-101 39t-115.5 34.5t-115.5 40.5t-101 56.5t-71.5 83t-27 119q0 68 26 124t70.5 93t98 59.5t112.5 30.5v215h123v-215q153 -11 299 -129l-68 -121
q-136 119 -283 119q-83 0 -150 -49t-67 -123q0 -50 35 -85.5t90.5 -56.5t123 -39.5t134.5 -42.5t122.5 -57t90.5 -90.5t35 -136.5q0 -145 -103 -231.5t-259 -100.5v-240h-123v236q-115 6 -209 53t-154 115z" />
    </font>
</defs>
</svg>
